  0
SECTION
  2
HEADER
  9
$ACADVER
  1
AC1018
  9
$ACADMAINTVER
 70
     0
  9
$DWGCODEPAGE
  3
ANSI_936
  9
$INSBASE
 10
0.0
 20
0.0
 30
0.0
  9
$EXTMIN
 10
115.380427759201
 20
49.34808256086122
 30
0.0
  9
$EXTMAX
 10
158.0115956389688
 20
230.2382990790246
 30
0.0
  9
$LIMMIN
 10
0.0
 20
0.0
  9
$LIMMAX
 10
420.0
 20
297.0
  9
$ORTHOMODE
 70
     1
  9
$REGENMODE
 70
     1
  9
$FILLMODE
 70
     1
  9
$QTEXTMODE
 70
     0
  9
$MIRRTEXT
 70
     0
  9
$LTSCALE
 40
1.0
  9
$ATTMODE
 70
     1
  9
$TEXTSIZE
 40
2.5
  9
$TRACEWID
 40
1.0
  9
$TEXTSTYLE
  7
Standard
  9
$CLAYER
  8
标注
  9
$CELTYPE
  6
ByLayer
  9
$CECOLOR
 62
   256
  9
$CELTSCALE
 40
1.0
  9
$DISPSILH
 70
     0
  9
$DIMSCALE
 40
1.0
  9
$DIMASZ
 40
0.65
  9
$DIMEXO
 40
0.88
  9
$DIMDLI
 40
0.015
  9
$DIMRND
 40
0.0
  9
$DIMDLE
 40
0.0
  9
$DIMEXE
 40
0.32
  9
$DIMTP
 40
0.0
  9
$DIMTM
 40
0.0
  9
$DIMTXT
 40
0.65
  9
$DIMCEN
 40
0.09
  9
$DIMTSZ
 40
0.0
  9
$DIMTOL
 70
     0
  9
$DIMLIM
 70
     0
  9
$DIMTIH
 70
     0
  9
$DIMTOH
 70
     0
  9
$DIMSE1
 70
     0
  9
$DIMSE2
 70
     0
  9
$DIMTAD
 70
     0
  9
$DIMZIN
 70
     8
  9
$DIMBLK
  1

  9
$DIMASO
 70
     1
  9
$DIMSHO
 70
     1
  9
$DIMPOST
  1
"
  9
$DIMAPOST
  1
"
  9
$DIMALT
 70
     0
  9
$DIMALTD
 70
     1
  9
$DIMALTF
 40
0.03937
  9
$DIMLFAC
 40
1.0
  9
$DIMTOFL
 70
     1
  9
$DIMTVP
 40
0.0
  9
$DIMTIX
 70
     0
  9
$DIMSOXD
 70
     0
  9
$DIMSAH
 70
     0
  9
$DIMBLK1
  1

  9
$DIMBLK2
  1

  9
$DIMSTYLE
  2
副本Standard
  9
$DIMCLRD
 70
   256
  9
$DIMCLRE
 70
   256
  9
$DIMCLRT
 70
   256
  9
$DIMTFAC
 40
1.0
  9
$DIMGAP
 40
0.2
  9
$DIMJUST
 70
     0
  9
$DIMSD1
 70
     0
  9
$DIMSD2
 70
     0
  9
$DIMTOLJ
 70
     1
  9
$DIMTZIN
 70
     0
  9
$DIMALTZ
 70
     0
  9
$DIMALTTZ
 70
     0
  9
$DIMUPT
 70
     0
  9
$DIMDEC
 70
     3
  9
$DIMTDEC
 70
     3
  9
$DIMALTU
 70
     2
  9
$DIMALTTD
 70
     1
  9
$DIMTXSTY
  7
Standard
  9
$DIMAUNIT
 70
     0
  9
$DIMADEC
 70
     1
  9
$DIMALTRND
 40
0.0
  9
$DIMAZIN
 70
     2
  9
$DIMDSEP
 70
    44
  9
$DIMATFIT
 70
     3
  9
$DIMFRAC
 70
     2
  9
$DIMLDRBLK
  1

  9
$DIMLUNIT
 70
     5
  9
$DIMLWD
 70
    -2
  9
$DIMLWE
 70
    -2
  9
$DIMTMOVE
 70
     0
  9
$LUNITS
 70
     2
  9
$LUPREC
 70
     4
  9
$SKETCHINC
 40
1.0
  9
$FILLETRAD
 40
2.0
  9
$AUNITS
 70
     0
  9
$AUPREC
 70
     0
  9
$MENU
  1
.
  9
$ELEVATION
 40
0.0
  9
$PELEVATION
 40
0.0
  9
$THICKNESS
 40
0.0
  9
$LIMCHECK
 70
     0
  9
$CHAMFERA
 40
0.0
  9
$CHAMFERB
 40
0.0
  9
$CHAMFERC
 40
0.0
  9
$CHAMFERD
 40
0.0
  9
$SKPOLY
 70
     0
  9
$TDCREATE
 40
2455855.628782743
  9
$TDUCREATE
 40
2455855.295449410
  9
$TDUPDATE
 40
2455860.562863311
  9
$TDUUPDATE
 40
2455860.229529977
  9
$TDINDWG
 40
0.0073770255
  9
$TDUSRTIMER
 40
0.0073766667
  9
$USRTIMER
 70
     1
  9
$ANGBASE
 50
0.0
  9
$ANGDIR
 70
     0
  9
$PDMODE
 70
     0
  9
$PDSIZE
 40
0.0
  9
$PLINEWID
 40
0.0
  9
$SPLFRAME
 70
     0
  9
$SPLINETYPE
 70
     6
  9
$SPLINESEGS
 70
     8
  9
$HANDSEED
  5
4AD
  9
$SURFTAB1
 70
     6
  9
$SURFTAB2
 70
     6
  9
$SURFTYPE
 70
     6
  9
$SURFU
 70
     6
  9
$SURFV
 70
     6
  9
$UCSBASE
  2

  9
$UCSNAME
  2

  9
$UCSORG
 10
0.0
 20
0.0
 30
0.0
  9
$UCSXDIR
 10
1.0
 20
0.0
 30
0.0
  9
$UCSYDIR
 10
0.0
 20
1.0
 30
0.0
  9
$UCSORTHOREF
  2

  9
$UCSORTHOVIEW
 70
     0
  9
$UCSORGTOP
 10
0.0
 20
0.0
 30
0.0
  9
$UCSORGBOTTOM
 10
0.0
 20
0.0
 30
0.0
  9
$UCSORGLEFT
 10
0.0
 20
0.0
 30
0.0
  9
$UCSORGRIGHT
 10
0.0
 20
0.0
 30
0.0
  9
$UCSORGFRONT
 10
0.0
 20
0.0
 30
0.0
  9
$UCSORGBACK
 10
0.0
 20
0.0
 30
0.0
  9
$PUCSBASE
  2

  9
$PUCSNAME
  2

  9
$PUCSORG
 10
0.0
 20
0.0
 30
0.0
  9
$PUCSXDIR
 10
1.0
 20
0.0
 30
0.0
  9
$PUCSYDIR
 10
0.0
 20
1.0
 30
0.0
  9
$PUCSORTHOREF
  2

  9
$PUCSORTHOVIEW
 70
     0
  9
$PUCSORGTOP
 10
0.0
 20
0.0
 30
0.0
  9
$PUCSORGBOTTOM
 10
0.0
 20
0.0
 30
0.0
  9
$PUCSORGLEFT
 10
0.0
 20
0.0
 30
0.0
  9
$PUCSORGRIGHT
 10
0.0
 20
0.0
 30
0.0
  9
$PUCSORGFRONT
 10
0.0
 20
0.0
 30
0.0
  9
$PUCSORGBACK
 10
0.0
 20
0.0
 30
0.0
  9
$USERI1
 70
     0
  9
$USERI2
 70
     0
  9
$USERI3
 70
     0
  9
$USERI4
 70
     0
  9
$USERI5
 70
     0
  9
$USERR1
 40
0.0
  9
$USERR2
 40
0.0
  9
$USERR3
 40
0.0
  9
$USERR4
 40
0.0
  9
$USERR5
 40
0.0
  9
$WORLDVIEW
 70
     1
  9
$SHADEDGE
 70
     3
  9
$SHADEDIF
 70
    70
  9
$TILEMODE
 70
     1
  9
$MAXACTVP
 70
    64
  9
$PINSBASE
 10
0.0
 20
0.0
 30
0.0
  9
$PLIMCHECK
 70
     0
  9
$PEXTMIN
 10
1.000000000000000E+20
 20
1.000000000000000E+20
 30
1.000000000000000E+20
  9
$PEXTMAX
 10
-1.000000000000000E+20
 20
-1.000000000000000E+20
 30
-1.000000000000000E+20
  9
$PLIMMIN
 10
0.0
 20
0.0
  9
$PLIMMAX
 10
420.0
 20
297.0
  9
$UNITMODE
 70
     0
  9
$VISRETAIN
 70
     1
  9
$PLINEGEN
 70
     0
  9
$PSLTSCALE
 70
     1
  9
$TREEDEPTH
 70
  3020
  9
$CMLSTYLE
  2
Standard
  9
$CMLJUST
 70
     0
  9
$CMLSCALE
 40
20.0
  9
$PROXYGRAPHICS
 70
     1
  9
$MEASUREMENT
 70
     1
  9
$CELWEIGHT
370
    -1
  9
$ENDCAPS
280
     0
  9
$JOINSTYLE
280
     0
  9
$LWDISPLAY
290
     0
  9
$INSUNITS
 70
     4
  9
$HYPERLINKBASE
  1

  9
$STYLESHEET
  1

  9
$XEDIT
290
     1
  9
$CEPSNTYPE
380
     0
  9
$PSTYLEMODE
290
     1
  9
$FINGERPRINTGUID
  2
{B48F46D2-D0EA-4C00-A4A8-23CB7417C210}
  9
$VERSIONGUID
  2
{41CE394C-BA09-4CEB-94BE-F29A22433FE4}
  9
$EXTNAMES
290
     1
  9
$PSVPSCALE
 40
0.0
  9
$OLESTARTUP
290
     0
  9
$SORTENTS
280
   127
  9
$INDEXCTL
280
     0
  9
$HIDETEXT
280
     1
  9
$XCLIPFRAME
290
     0
  9
$HALOGAP
280
     0
  9
$OBSCOLOR
 70
   257
  9
$OBSLTYPE
280
     0
  9
$INTERSECTIONDISPLAY
280
     0
  9
$INTERSECTIONCOLOR
 70
   257
  9
$DIMASSOC
280
     2
  9
$PROJECTNAME
  1

  0
ENDSEC
  0
SECTION
  2
CLASSES
  0
CLASS
  1
ACDBDICTIONARYWDFLT
  2
AcDbDictionaryWithDefault
  3
ObjectDBX Classes
 90
        0
 91
        1
280
     0
281
     0
  0
CLASS
  1
DIMASSOC
  2
AcDbDimAssoc
  3
"AcDbDimAssoc|Product Desc:     AcDim ARX App For Dimension|Company:          Autodesk, Inc.|WEB Address:      www.autodesk.com"
 90
        0
 91
       15
280
     0
281
     0
  0
ENDSEC
  0
SECTION
  2
TABLES
  0
TABLE
  2
VPORT
  5
8
330
0
100
AcDbSymbolTable
 70
     2
  0
VPORT
  5
4AC
330
8
100
AcDbSymbolTableRecord
100
AcDbViewportTableRecord
  2
*Active
 70
     0
 10
0.0
 20
0.0
 11
1.0
 21
1.0
 12
138.7123434651251
 22
154.9002718082456
 13
0.0
 23
0.0
 14
10.0
 24
10.0
 15
10.0
 25
10.0
 16
0.0
 26
0.0
 36
1.0
 17
0.0
 27
0.0
 37
0.0
 40
268.3041023054122
 41
1.518855656697009
 42
50.0
 43
0.0
 44
0.0
 50
0.0
 51
0.0
 71
     0
 72
  1000
 73
     1
 74
     3
 75
     0
 76
     0
 77
     0
 78
     0
281
     0
 65
     1
110
0.0
120
0.0
130
0.0
111
1.0
121
0.0
131
0.0
112
0.0
122
1.0
132
0.0
 79
     0
146
0.0
  0
ENDTAB
  0
TABLE
  2
LTYPE
  5
5
330
0
100
AcDbSymbolTable
 70
     3
  0
LTYPE
  5
14
330
5
100
AcDbSymbolTableRecord
100
AcDbLinetypeTableRecord
  2
ByBlock
 70
     0
  3

 72
    65
 73
     0
 40
0.0
  0
LTYPE
  5
15
330
5
100
AcDbSymbolTableRecord
100
AcDbLinetypeTableRecord
  2
ByLayer
 70
     0
  3

 72
    65
 73
     0
 40
0.0
  0
LTYPE
  5
16
330
5
100
AcDbSymbolTableRecord
100
AcDbLinetypeTableRecord
  2
Continuous
 70
     0
  3
Solid line
 72
    65
 73
     0
 40
0.0
  0
LTYPE
  5
ED
330
5
100
AcDbSymbolTableRecord
100
AcDbLinetypeTableRecord
  2
CENTER2
 70
     0
  3
Center (.5x) ___ _ ___ _ ___ _ ___ _ ___ _ ___
 72
    65
 73
     4
 40
28.575
 49
19.05
 74
     0
 49
-3.174999999999998
 74
     0
 49
3.174999999999998
 74
     0
 49
-3.174999999999998
 74
     0
  0
LTYPE
  5
EE
330
5
100
AcDbSymbolTableRecord
100
AcDbLinetypeTableRecord
  2
HIDDEN2
 70
     0
  3
Hidden (.5x) _ _ _ _ _ _ _ _ _ _ _ _ _ _ _ _ _
 72
    65
 73
     2
 40
4.762499999999998
 49
3.174999999999998
 74
     0
 49
-1.587499999999999
 74
     0
  0
ENDTAB
  0
TABLE
  2
LAYER
  5
2
102
{ACAD_XDICTIONARY
360
F7
102
}
330
0
100
AcDbSymbolTable
 70
     6
  0
LAYER
  5
10
330
2
100
AcDbSymbolTableRecord
100
AcDbLayerTableRecord
  2
0
 70
     0
 62
     7
  6
Continuous
370
    -3
390
F
  0
LAYER
  5
EF
330
2
100
AcDbSymbolTableRecord
100
AcDbLayerTableRecord
  2
中心线
 70
     0
 62
     1
  6
CENTER2
370
    -3
390
F
  0
LAYER
  5
F0
330
2
100
AcDbSymbolTableRecord
100
AcDbLayerTableRecord
  2
虚线
 70
     0
 62
     4
  6
HIDDEN2
370
    -3
390
F
  0
LAYER
  5
F1
330
2
100
AcDbSymbolTableRecord
100
AcDbLayerTableRecord
  2
Defpoints
 70
     0
 62
     7
  6
Continuous
290
     0
370
    -3
390
F
  0
LAYER
  5
F2
330
2
100
AcDbSymbolTableRecord
100
AcDbLayerTableRecord
  2
标注
 70
     0
 62
    80
  6
Continuous
370
     5
390
F
1001
AcAecLayerStandard
1000

1000

  0
LAYER
  5
F3
330
2
100
AcDbSymbolTableRecord
100
AcDbLayerTableRecord
  2
截面层
 70
     0
 62
     6
  6
Continuous
370
    50
390
F
  0
ENDTAB
  0
TABLE
  2
STYLE
  5
3
330
0
100
AcDbSymbolTable
 70
     1
  0
STYLE
  5
11
330
3
100
AcDbSymbolTableRecord
100
AcDbTextStyleTableRecord
  2
Standard
 70
     0
 40
0.0
 41
1.0
 50
0.0
 71
     0
 42
2.5
  3
txt
  4

  0
ENDTAB
  0
TABLE
  2
VIEW
  5
6
330
0
100
AcDbSymbolTable
 70
     0
  0
ENDTAB
  0
TABLE
  2
UCS
  5
7
330
0
100
AcDbSymbolTable
 70
     0
  0
ENDTAB
  0
TABLE
  2
APPID
  5
9
330
0
100
AcDbSymbolTable
 70
     2
  0
APPID
  5
12
330
9
100
AcDbSymbolTableRecord
100
AcDbRegAppTableRecord
  2
ACAD
 70
     0
  0
APPID
  5
F6
330
9
100
AcDbSymbolTableRecord
100
AcDbRegAppTableRecord
  2
AcAecLayerStandard
 70
     0
  0
ENDTAB
  0
TABLE
  2
DIMSTYLE
  5
A
330
0
100
AcDbSymbolTable
 70
     3
100
AcDbDimStyleTable
 71
     2
340
F5
340
29
  0
DIMSTYLE
105
29
330
A
100
AcDbSymbolTableRecord
100
AcDbDimStyleTableRecord
  2
ISO-25
 70
     0
 41
2.5
 42
0.625
 43
3.75
 44
1.25
 73
     0
 74
     0
 77
     1
 78
     8
140
2.5
141
2.5
143
0.03937007874016
147
0.625
171
     3
172
     1
271
     2
272
     2
274
     3
283
     0
284
     8
340
11
  0
DIMSTYLE
105
F4
330
A
100
AcDbSymbolTableRecord
100
AcDbDimStyleTableRecord
  2
Standard
 70
     0
340
11
  0
DIMSTYLE
105
F5
102
{ACAD_REACTORS
330
28B
330
28E
330
28F
330
292
330
293
330
296
330
299
330
29C
330
29F
330
2A2
330
2A5
330
2A8
330
2A9
330
2AC
330
3E1
330
444
330
46D
102
}
330
A
100
AcDbSymbolTableRecord
100
AcDbDimStyleTableRecord
  2
副本Standard
 70
     0
  3
"
  4
"
 41
0.65
 42
0.88
 43
0.015
 44
0.32
 73
     0
 74
     0
 78
     8
 79
     2
140
0.65
143
0.03937
147
0.2
171
     1
172
     1
176
   256
177
   256
178
   256
179
     1
271
     3
272
     3
274
     1
276
     2
277
     5
278
    44
340
11
  0
ENDTAB
  0
TABLE
  2
BLOCK_RECORD
  5
1
330
0
100
AcDbSymbolTable
 70
    38
  0
BLOCK_RECORD
  5
21
330
1
100
AcDbSymbolTableRecord
100
AcDbBlockTableRecord
  2
*Model_Space
340
24
  0
BLOCK_RECORD
  5
1D
330
1
100
AcDbSymbolTableRecord
100
AcDbBlockTableRecord
  2
*Paper_Space
340
20
  0
BLOCK_RECORD
  5
25
330
1
100
AcDbSymbolTableRecord
100
AcDbBlockTableRecord
  2
*Paper_Space0
340
28
  0
BLOCK_RECORD
  5
2DC
330
1
100
AcDbSymbolTableRecord
100
AcDbBlockTableRecord
  2
*D17
340
0
  0
BLOCK_RECORD
  5
2EA
330
1
100
AcDbSymbolTableRecord
100
AcDbBlockTableRecord
  2
*D18
340
0
  0
BLOCK_RECORD
  5
2F8
330
1
100
AcDbSymbolTableRecord
100
AcDbBlockTableRecord
  2
*D19
340
0
  0
BLOCK_RECORD
  5
315
330
1
100
AcDbSymbolTableRecord
100
AcDbBlockTableRecord
  2
*D22
340
0
  0
BLOCK_RECORD
  5
32E
330
1
100
AcDbSymbolTableRecord
100
AcDbBlockTableRecord
  2
*D23
340
0
  0
BLOCK_RECORD
  5
347
330
1
100
AcDbSymbolTableRecord
100
AcDbBlockTableRecord
  2
*D24
340
0
  0
BLOCK_RECORD
  5
34F
330
1
100
AcDbSymbolTableRecord
100
AcDbBlockTableRecord
  2
*D25
340
0
  0
BLOCK_RECORD
  5
357
330
1
100
AcDbSymbolTableRecord
100
AcDbBlockTableRecord
  2
*D26
340
0
  0
BLOCK_RECORD
  5
364
330
1
100
AcDbSymbolTableRecord
100
AcDbBlockTableRecord
  2
*D27
340
0
  0
BLOCK_RECORD
  5
371
330
1
100
AcDbSymbolTableRecord
100
AcDbBlockTableRecord
  2
*D28
340
0
  0
BLOCK_RECORD
  5
37E
330
1
100
AcDbSymbolTableRecord
100
AcDbBlockTableRecord
  2
*D29
340
0
  0
BLOCK_RECORD
  5
38B
330
1
100
AcDbSymbolTableRecord
100
AcDbBlockTableRecord
  2
*D30
340
0
  0
BLOCK_RECORD
  5
3A2
330
1
100
AcDbSymbolTableRecord
100
AcDbBlockTableRecord
  2
*D31
340
0
  0
BLOCK_RECORD
  5
3AF
330
1
100
AcDbSymbolTableRecord
100
AcDbBlockTableRecord
  2
*D32
340
0
  0
BLOCK_RECORD
  5
3E2
330
1
100
AcDbSymbolTableRecord
100
AcDbBlockTableRecord
  2
*D33
340
0
  0
BLOCK_RECORD
  5
445
330
1
100
AcDbSymbolTableRecord
100
AcDbBlockTableRecord
  2
*D35
340
0
  0
BLOCK_RECORD
  5
46E
330
1
100
AcDbSymbolTableRecord
100
AcDbBlockTableRecord
  2
*D37
340
0
  0
ENDTAB
  0
ENDSEC
  0
SECTION
  2
BLOCKS
  0
BLOCK
  5
22
330
21
100
AcDbEntity
  8
0
100
AcDbBlockBegin
  2
*Model_Space
 70
     0
 10
0.0
 20
0.0
 30
0.0
  3
*Model_Space
  1

  0
ENDBLK
  5
23
330
21
100
AcDbEntity
  8
0
100
AcDbBlockEnd
  0
BLOCK
  5
1E
330
1D
100
AcDbEntity
 67
     1
  8
0
100
AcDbBlockBegin
  2
*Paper_Space
 70
     0
 10
0.0
 20
0.0
 30
0.0
  3
*Paper_Space
  1

  0
ENDBLK
  5
1F
330
1D
100
AcDbEntity
 67
     1
  8
0
100
AcDbBlockEnd
  0
BLOCK
  5
26
330
25
100
AcDbEntity
  8
0
100
AcDbBlockBegin
  2
*Paper_Space0
 70
     0
 10
0.0
 20
0.0
 30
0.0
  3
*Paper_Space0
  1

  0
ENDBLK
  5
27
330
25
100
AcDbEntity
  8
0
100
AcDbBlockEnd
  0
BLOCK
  5
2E8
330
2DC
100
AcDbEntity
  8
0
100
AcDbBlockBegin
  2
*D17
 70
     1
 10
0.0
 20
0.0
 30
0.0
  3
*D17
  1

  0
LINE
  5
323
330
2DC
100
AcDbEntity
  8
标注
370
    -2
100
AcDbLine
 10
145.6725645583578
 20
209.5128721613436
 30
0.0
 11
155.5686348027764
 21
209.5128721613436
 31
0.0
  0
LINE
  5
324
330
2DC
100
AcDbEntity
  8
标注
370
    -2
100
AcDbLine
 10
148.7295724324201
 20
210.5128721613435
 30
0.0
 11
155.5686348027764
 21
210.5128721613435
 31
0.0
  0
LINE
  5
325
330
2DC
100
AcDbEntity
  8
标注
370
    -2
100
AcDbLine
 10
155.2486348027764
 20
208.8628721613436
 30
0.0
 11
155.2486348027764
 21
208.2128721613436
 31
0.0
  0
LINE
  5
326
330
2DC
100
AcDbEntity
  8
标注
370
    -2
100
AcDbLine
 10
155.2486348027764
 20
211.1628721613436
 30
0.0
 11
155.2486348027764
 21
211.8128721613435
 31
0.0
  0
LINE
  5
327
330
2DC
100
AcDbEntity
  8
标注
370
    -2
100
AcDbLine
 10
155.2486348027764
 20
209.5128721613436
 30
0.0
 11
155.2486348027764
 21
210.5128721613435
 31
0.0
  0
SOLID
  5
328
330
2DC
100
AcDbEntity
  8
标注
100
AcDbTrace
 10
155.1403014694431
 20
208.8628721613436
 30
0.0
 11
155.3569681361097
 21
208.8628721613436
 31
0.0
 12
155.2486348027764
 22
209.5128721613436
 32
0.0
 13
155.2486348027764
 23
209.5128721613436
 33
0.0
  0
SOLID
  5
329
330
2DC
100
AcDbEntity
  8
标注
100
AcDbTrace
 10
155.1403014694431
 20
211.1628721613436
 30
0.0
 11
155.3569681361097
 21
211.1628721613436
 31
0.0
 12
155.2486348027764
 22
210.5128721613435
 32
0.0
 13
155.2486348027764
 23
210.5128721613435
 33
0.0
  0
MTEXT
  5
32A
330
2DC
100
AcDbEntity
  8
标注
100
AcDbMText
 10
155.2486348027764
 20
212.3378721613436
 30
0.0
 40
0.65
 41
0.0
 71
     5
 72
     1
  1
\A1;1"
 11
0.0000000000000001
 21
1.0
 31
0.0
 73
     1
 44
1.0
  0
POINT
  5
32B
330
2DC
100
AcDbEntity
  8
Defpoints
 62
     0
100
AcDbPoint
 10
144.7925645583578
 20
209.5128721613436
 30
0.0
  0
POINT
  5
32C
330
2DC
100
AcDbEntity
  8
Defpoints
 62
     0
100
AcDbPoint
 10
147.8495724324201
 20
210.5128721613435
 30
0.0
  0
POINT
  5
32D
330
2DC
100
AcDbEntity
  8
Defpoints
 62
     0
100
AcDbPoint
 10
155.2486348027764
 20
210.5128721613435
 30
0.0
  0
ENDBLK
  5
2E9
330
2DC
100
AcDbEntity
  8
0
100
AcDbBlockEnd
  0
BLOCK
  5
2F6
330
2EA
100
AcDbEntity
  8
0
100
AcDbBlockBegin
  2
*D18
 70
     1
 10
0.0
 20
0.0
 30
0.0
  3
*D18
  1

  0
LINE
  5
33C
330
2EA
100
AcDbEntity
  8
标注
370
    -2
100
AcDbLine
 10
151.786580306436
 20
199.2627934211861
 30
0.0
 11
151.786580306436
 21
187.0985893225397
 31
0.0
  0
LINE
  5
33D
330
2EA
100
AcDbEntity
  8
标注
370
    -2
100
AcDbLine
 10
152.7865803064359
 20
193.8297225550414
 30
0.0
 11
152.7865803064359
 21
187.0985893225397
 31
0.0
  0
LINE
  5
33E
330
2EA
100
AcDbEntity
  8
标注
370
    -2
100
AcDbLine
 10
151.136580306436
 20
187.4185893225396
 30
0.0
 11
150.486580306436
 21
187.4185893225396
 31
0.0
  0
LINE
  5
33F
330
2EA
100
AcDbEntity
  8
标注
370
    -2
100
AcDbLine
 10
153.4365803064359
 20
187.4185893225396
 30
0.0
 11
154.0865803064358
 21
187.4185893225396
 31
0.0
  0
LINE
  5
340
330
2EA
100
AcDbEntity
  8
标注
370
    -2
100
AcDbLine
 10
151.786580306436
 20
187.4185893225396
 30
0.0
 11
152.7865803064359
 21
187.4185893225396
 31
0.0
  0
SOLID
  5
341
330
2EA
100
AcDbEntity
  8
标注
100
AcDbTrace
 10
151.136580306436
 20
187.5269226558731
 30
0.0
 11
151.136580306436
 21
187.3102559892064
 31
0.0
 12
151.786580306436
 22
187.4185893225396
 32
0.0
 13
151.786580306436
 23
187.4185893225396
 33
0.0
  0
SOLID
  5
342
330
2EA
100
AcDbEntity
  8
标注
100
AcDbTrace
 10
153.4365803064359
 20
187.5269226558731
 30
0.0
 11
153.4365803064359
 21
187.3102559892064
 31
0.0
 12
152.7865803064359
 22
187.4185893225396
 32
0.0
 13
152.7865803064359
 23
187.4185893225396
 33
0.0
  0
MTEXT
  5
343
330
2EA
100
AcDbEntity
  8
标注
100
AcDbMText
 10
154.6115803064359
 20
187.4185893225396
 30
0.0
 40
0.65
 41
0.0
 71
     5
 72
     1
  1
\A1;1"
 73
     1
 44
1.0
  0
POINT
  5
344
330
2EA
100
AcDbEntity
  8
Defpoints
 62
     0
100
AcDbPoint
 10
151.786580306436
 20
200.1427934211862
 30
0.0
  0
POINT
  5
345
330
2EA
100
AcDbEntity
  8
Defpoints
 62
     0
100
AcDbPoint
 10
152.7865803064359
 20
194.7097225550414
 30
0.0
  0
POINT
  5
346
330
2EA
100
AcDbEntity
  8
Defpoints
 62
     0
100
AcDbPoint
 10
152.7865803064359
 20
187.4185893225396
 30
0.0
  0
ENDBLK
  5
2F7
330
2EA
100
AcDbEntity
  8
0
100
AcDbBlockEnd
  0
BLOCK
  5
303
330
2F8
100
AcDbEntity
  8
0
100
AcDbBlockBegin
  2
*D19
 70
     1
 10
0.0
 20
0.0
 30
0.0
  3
*D19
  1

  0
LINE
  5
398
330
2F8
100
AcDbEntity
  8
标注
370
    -2
100
AcDbLine
 10
148.7295724324201
 20
210.5128721613435
 30
0.0
 11
158.0065956389688
 21
210.5128721613435
 31
0.0
  0
LINE
  5
399
330
2F8
100
AcDbEntity
  8
标注
370
    -2
100
AcDbLine
 10
148.7295724324201
 20
189.7727146810258
 30
0.0
 11
158.0065956389688
 21
189.7727146810258
 31
0.0
  0
LINE
  5
39A
330
2F8
100
AcDbEntity
  8
标注
370
    -2
100
AcDbLine
 10
157.6865956389688
 20
209.8628721613435
 30
0.0
 11
157.6865956389688
 21
202.3469600878513
 31
0.0
  0
LINE
  5
39B
330
2F8
100
AcDbEntity
  8
标注
370
    -2
100
AcDbLine
 10
157.6865956389688
 20
190.4227146810258
 30
0.0
 11
157.6865956389688
 21
197.9386267545179
 31
0.0
  0
SOLID
  5
39C
330
2F8
100
AcDbEntity
  8
标注
100
AcDbTrace
 10
157.5782623056355
 20
209.8628721613435
 30
0.0
 11
157.7949289723022
 21
209.8628721613435
 31
0.0
 12
157.6865956389688
 22
210.5128721613435
 32
0.0
 13
157.6865956389688
 23
210.5128721613435
 33
0.0
  0
SOLID
  5
39D
330
2F8
100
AcDbEntity
  8
标注
100
AcDbTrace
 10
157.5782623056355
 20
190.4227146810258
 30
0.0
 11
157.7949289723021
 21
190.4227146810258
 31
0.0
 12
157.6865956389688
 22
189.7727146810258
 32
0.0
 13
157.6865956389688
 23
189.7727146810258
 33
0.0
  0
MTEXT
  5
39E
330
2F8
100
AcDbEntity
  8
标注
100
AcDbMText
 10
157.6865956389688
 20
200.1427934211847
 30
0.0
 40
0.65
 41
0.0
 71
     5
 72
     1
  1
\A1;20 3/4"
 11
0.0000000000000001
 21
1.0
 31
0.0
 73
     1
 44
1.0
  0
POINT
  5
39F
330
2F8
100
AcDbEntity
  8
Defpoints
 62
     0
100
AcDbPoint
 10
147.8495724324201
 20
210.5128721613435
 30
0.0
  0
POINT
  5
3A0
330
2F8
100
AcDbEntity
  8
Defpoints
 62
     0
100
AcDbPoint
 10
147.8495724324201
 20
189.7727146810258
 30
0.0
  0
POINT
  5
3A1
330
2F8
100
AcDbEntity
  8
Defpoints
 62
     0
100
AcDbPoint
 10
157.6865956389688
 20
189.7727146810258
 30
0.0
  0
ENDBLK
  5
304
330
2F8
100
AcDbEntity
  8
0
100
AcDbBlockEnd
  0
BLOCK
  5
321
330
315
100
AcDbEntity
  8
0
100
AcDbBlockBegin
  2
*D22
 70
     1
 10
0.0
 20
0.0
 30
0.0
  3
*D22
  1

  0
LINE
  5
316
330
315
100
AcDbEntity
  8
标注
370
    -2
100
AcDbLine
 10
126.5147692828139
 20
190.77271468104
 30
0.0
 11
117.7265886745974
 21
190.77271468104
 31
0.0
  0
LINE
  5
317
330
315
100
AcDbEntity
  8
标注
370
    -2
100
AcDbLine
 10
124.4420133772987
 20
189.7727146810424
 30
0.0
 11
117.7265886745974
 21
189.7727146810424
 31
0.0
  0
LINE
  5
318
330
315
100
AcDbEntity
  8
标注
370
    -2
100
AcDbLine
 10
118.0465886745974
 20
191.4227146810402
 30
0.0
 11
118.0465886745974
 21
192.0727146810402
 31
0.0
  0
LINE
  5
319
330
315
100
AcDbEntity
  8
标注
370
    -2
100
AcDbLine
 10
118.0465886745974
 20
189.1227146810424
 30
0.0
 11
118.0465886745974
 21
188.4727146810424
 31
0.0
  0
LINE
  5
31A
330
315
100
AcDbEntity
  8
标注
370
    -2
100
AcDbLine
 10
118.0465886745974
 20
190.77271468104
 30
0.0
 11
118.0465886745974
 21
189.7727146810424
 31
0.0
  0
SOLID
  5
31B
330
315
100
AcDbEntity
  8
标注
100
AcDbTrace
 10
117.9382553412641
 20
191.4227146810402
 30
0.0
 11
118.1549220079308
 21
191.4227146810402
 31
0.0
 12
118.0465886745974
 22
190.77271468104
 32
0.0
 13
118.0465886745974
 23
190.77271468104
 33
0.0
  0
SOLID
  5
31C
330
315
100
AcDbEntity
  8
标注
100
AcDbTrace
 10
117.9382553412641
 20
189.1227146810424
 30
0.0
 11
118.1549220079308
 21
189.1227146810424
 31
0.0
 12
118.0465886745974
 22
189.7727146810424
 32
0.0
 13
118.0465886745974
 23
189.7727146810424
 33
0.0
  0
MTEXT
  5
31D
330
315
100
AcDbEntity
  8
标注
100
AcDbMText
 10
118.0465886745974
 20
187.9477146810424
 30
0.0
 40
0.65
 41
0.0
 71
     5
 72
     1
  1
\A1;1"
 11
0.0000000000000001
 21
1.0
 31
0.0
 73
     1
 44
1.0
  0
POINT
  5
31E
330
315
100
AcDbEntity
  8
Defpoints
 62
     0
100
AcDbPoint
 10
127.3947692828139
 20
190.77271468104
 30
0.0
  0
POINT
  5
31F
330
315
100
AcDbEntity
  8
Defpoints
 62
     0
100
AcDbPoint
 10
125.3220133772987
 20
189.7727146810424
 30
0.0
  0
POINT
  5
320
330
315
100
AcDbEntity
  8
Defpoints
 62
     0
100
AcDbPoint
 10
118.0465886745974
 20
189.7727146810424
 30
0.0
  0
ENDBLK
  5
322
330
315
100
AcDbEntity
  8
0
100
AcDbBlockEnd
  0
BLOCK
  5
33A
330
32E
100
AcDbEntity
  8
0
100
AcDbBlockBegin
  2
*D23
 70
     1
 10
0.0
 20
0.0
 30
0.0
  3
*D23
  1

  0
LINE
  5
32F
330
32E
100
AcDbEntity
  8
标注
370
    -2
100
AcDbLine
 10
134.77083227494
 20
199.9204312164741
 30
0.0
 11
134.77083227494
 21
199.5827934211861
 31
0.0
  0
LINE
  5
330
330
32E
100
AcDbEntity
  8
标注
370
    -2
100
AcDbLine
 10
136.038548810373
 20
199.9204312164741
 30
0.0
 11
136.038548810373
 21
199.5827934211861
 31
0.0
  0
LINE
  5
331
330
32E
100
AcDbEntity
  8
标注
370
    -2
100
AcDbLine
 10
134.12083227494
 20
199.2627934211861
 30
0.0
 11
133.47083227494
 21
199.2627934211861
 31
0.0
  0
LINE
  5
332
330
32E
100
AcDbEntity
  8
标注
370
    -2
100
AcDbLine
 10
136.6885488103731
 20
199.2627934211861
 30
0.0
 11
137.3385488103731
 21
199.2627934211861
 31
0.0
  0
LINE
  5
333
330
32E
100
AcDbEntity
  8
标注
370
    -2
100
AcDbLine
 10
134.77083227494
 20
199.2627934211861
 30
0.0
 11
136.038548810373
 21
199.2627934211861
 31
0.0
  0
SOLID
  5
334
330
32E
100
AcDbEntity
  8
标注
100
AcDbTrace
 10
134.12083227494
 20
199.3711267545195
 30
0.0
 11
134.12083227494
 21
199.1544600878528
 31
0.0
 12
134.77083227494
 22
199.2627934211861
 32
0.0
 13
134.77083227494
 23
199.2627934211861
 33
0.0
  0
SOLID
  5
335
330
32E
100
AcDbEntity
  8
标注
100
AcDbTrace
 10
136.6885488103731
 20
199.3711267545195
 30
0.0
 11
136.6885488103731
 21
199.1544600878528
 31
0.0
 12
136.038548810373
 22
199.2627934211861
 32
0.0
 13
136.038548810373
 23
199.2627934211861
 33
0.0
  0
MTEXT
  5
336
330
32E
100
AcDbEntity
  8
标注
100
AcDbMText
 10
139.0552154770397
 20
199.2627934211861
 30
0.0
 40
0.65
 41
0.0
 71
     5
 72
     1
  1
\A1;1 1/4"
 73
     1
 44
1.0
  0
POINT
  5
337
330
32E
100
AcDbEntity
  8
Defpoints
 62
     0
100
AcDbPoint
 10
134.77083227494
 20
199.0404312164742
 30
0.0
  0
POINT
  5
338
330
32E
100
AcDbEntity
  8
Defpoints
 62
     0
100
AcDbPoint
 10
136.038548810373
 20
199.0404312164742
 30
0.0
  0
POINT
  5
339
330
32E
100
AcDbEntity
  8
Defpoints
 62
     0
100
AcDbPoint
 10
136.038548810373
 20
199.2627934211861
 30
0.0
  0
ENDBLK
  5
33B
330
32E
100
AcDbEntity
  8
0
100
AcDbBlockEnd
  0
BLOCK
  5
34D
330
347
100
AcDbEntity
  8
0
100
AcDbBlockBegin
  2
*D24
 70
     1
 10
0.0
 20
0.0
 30
0.0
  3
*D24
  1

  0
LINE
  5
3C6
330
347
100
AcDbEntity
  8
标注
370
    -2
100
AcDbLine
 10
123.8238032388251
 20
193.0095116021601
 30
0.0
 11
123.3254553274277
 21
192.5921995376257
 31
0.0
  0
MTEXT
  5
3C7
330
347
100
AcDbEntity
  8
标注
100
AcDbMText
 10
125.4721847919087
 20
194.3898515079274
 30
0.0
 40
0.65
 41
0.0
 71
     5
 72
     1
  1
\A1;R3 1/2"
 11
0.7666890944574901
 21
0.6420185608220015
 31
0.0
 73
     1
 44
1.0
  0
SOLID
  5
3C8
330
347
100
AcDbEntity
  8
标注
100
AcDbTrace
 10
123.2559033166719
 20
192.6752575228585
 30
0.0
 11
123.3950073381834
 21
192.5091415523928
 31
0.0
 12
122.8271074160303
 22
192.1748874730915
 32
0.0
 13
122.8271074160303
 23
192.1748874730915
 33
0.0
  0
POINT
  5
3C9
330
347
100
AcDbEntity
  8
Defpoints
 62
     0
100
AcDbPoint
 10
122.8271074160303
 20
192.1748874730915
 30
0.0
  0
POINT
  5
3CA
330
347
100
AcDbEntity
  8
Defpoints
 62
     0
100
AcDbPoint
 10
125.5437223176513
 20
194.4497563893898
 30
0.0
  0
ENDBLK
  5
34E
330
347
100
AcDbEntity
  8
0
100
AcDbBlockEnd
  0
BLOCK
  5
355
330
34F
100
AcDbEntity
  8
0
100
AcDbBlockBegin
  2
*D25
 70
     1
 10
0.0
 20
0.0
 30
0.0
  3
*D25
  1

  0
LINE
  5
3CB
330
34F
100
AcDbEntity
  8
标注
370
    -2
100
AcDbLine
 10
138.1649362874002
 20
193.1615283372769
 30
0.0
 11
137.6671049754661
 21
192.7436001318898
 31
0.0
  0
MTEXT
  5
3CC
330
34F
100
AcDbEntity
  8
标注
100
AcDbMText
 10
139.894580973735
 20
194.6135609483011
 30
0.0
 40
0.65
 41
0.0
 71
     5
 72
     1
  1
\A1;R3 7/8"
 11
0.7658943260523343
 21
0.6429664698262583
 31
0.0
 73
     1
 44
1.0
  0
SOLID
  5
3CD
330
34F
100
AcDbEntity
  8
标注
100
AcDbTrace
 10
137.5974502745683
 20
192.8265720172121
 30
0.0
 11
137.736759676364
 21
192.6606282465675
 31
0.0
 12
137.1692736635321
 22
192.3256719265026
 32
0.0
 13
137.1692736635321
 23
192.3256719265026
 33
0.0
  0
POINT
  5
3CE
330
34F
100
AcDbEntity
  8
Defpoints
 62
     0
100
AcDbPoint
 10
137.1692736635321
 20
192.3256719265026
 30
0.0
  0
POINT
  5
3CF
330
34F
100
AcDbEntity
  8
Defpoints
 62
     0
100
AcDbPoint
 10
140.1846056558642
 20
194.8570359809368
 30
0.0
  0
ENDBLK
  5
356
330
34F
100
AcDbEntity
  8
0
100
AcDbBlockEnd
  0
BLOCK
  5
362
330
357
100
AcDbEntity
  8
0
100
AcDbBlockBegin
  2
*D26
 70
     1
 10
0.0
 20
0.0
 30
0.0
  3
*D26
  1

  0
LINE
  5
358
330
357
100
AcDbEntity
  8
标注
370
    -2
100
AcDbLine
 10
152.7865803064359
 20
193.8297225550414
 30
0.0
 11
152.7865803064359
 21
184.8511816833886
 31
0.0
  0
LINE
  5
359
330
357
100
AcDbEntity
  8
标注
370
    -2
100
AcDbLine
 10
120.778706290688
 20
193.4360217676566
 30
0.0
 11
120.778706290688
 21
184.8511816833886
 31
0.0
  0
LINE
  5
35A
330
357
100
AcDbEntity
  8
标注
370
    -2
100
AcDbLine
 10
152.1365803064359
 20
185.1711816833886
 30
0.0
 11
137.7409766318952
 21
185.1711816833886
 31
0.0
  0
LINE
  5
35B
330
357
100
AcDbEntity
  8
标注
370
    -2
100
AcDbLine
 10
121.428706290688
 20
185.1711816833886
 30
0.0
 11
135.8243099652285
 21
185.1711816833886
 31
0.0
  0
SOLID
  5
35C
330
357
100
AcDbEntity
  8
标注
100
AcDbTrace
 10
152.1365803064359
 20
185.2795150167219
 30
0.0
 11
152.1365803064359
 21
185.0628483500553
 31
0.0
 12
152.7865803064359
 22
185.1711816833886
 32
0.0
 13
152.7865803064359
 23
185.1711816833886
 33
0.0
  0
SOLID
  5
35D
330
357
100
AcDbEntity
  8
标注
100
AcDbTrace
 10
121.428706290688
 20
185.2795150167219
 30
0.0
 11
121.428706290688
 21
185.0628483500553
 31
0.0
 12
120.778706290688
 22
185.1711816833886
 32
0.0
 13
120.778706290688
 23
185.1711816833886
 33
0.0
  0
MTEXT
  5
35E
330
357
100
AcDbEntity
  8
标注
100
AcDbMText
 10
136.7826432985619
 20
185.1711816833886
 30
0.0
 40
0.65
 41
0.0
 71
     5
 72
     1
  1
\A1;32"
 73
     1
 44
1.0
  0
POINT
  5
35F
330
357
100
AcDbEntity
  8
Defpoints
 62
     0
100
AcDbPoint
 10
152.7865803064359
 20
194.7097225550414
 30
0.0
  0
POINT
  5
360
330
357
100
AcDbEntity
  8
Defpoints
 62
     0
100
AcDbPoint
 10
120.778706290688
 20
194.3160217676565
 30
0.0
  0
POINT
  5
361
330
357
100
AcDbEntity
  8
Defpoints
 62
     0
100
AcDbPoint
 10
120.778706290688
 20
185.1711816833886
 30
0.0
  0
ENDBLK
  5
363
330
357
100
AcDbEntity
  8
0
100
AcDbBlockEnd
  0
BLOCK
  5
36F
330
364
100
AcDbEntity
  8
0
100
AcDbBlockBegin
  2
*D27
 70
     1
 10
0.0
 20
0.0
 30
0.0
  3
*D27
  1

  0
LINE
  5
365
330
364
100
AcDbEntity
  8
标注
370
    -2
100
AcDbLine
 10
134.7708322749399
 20
198.1604312164743
 30
0.0
 11
134.7708322749399
 21
187.0945799508248
 31
0.0
  0
LINE
  5
366
330
364
100
AcDbEntity
  8
标注
370
    -2
100
AcDbLine
 10
121.778706290688
 20
198.1604312164732
 30
0.0
 11
121.778706290688
 21
187.0945799508248
 31
0.0
  0
LINE
  5
367
330
364
100
AcDbEntity
  8
标注
370
    -2
100
AcDbLine
 10
134.1208322749399
 20
187.4145799508248
 30
0.0
 11
129.1247692828139
 21
187.4145799508248
 31
0.0
  0
LINE
  5
368
330
364
100
AcDbEntity
  8
标注
370
    -2
100
AcDbLine
 10
122.428706290688
 20
187.4145799508248
 30
0.0
 11
127.4247692828139
 21
187.4145799508248
 31
0.0
  0
SOLID
  5
369
330
364
100
AcDbEntity
  8
标注
100
AcDbTrace
 10
134.1208322749399
 20
187.5229132841582
 30
0.0
 11
134.1208322749399
 21
187.3062466174915
 31
0.0
 12
134.7708322749399
 22
187.4145799508248
 32
0.0
 13
134.7708322749399
 23
187.4145799508248
 33
0.0
  0
SOLID
  5
36A
330
364
100
AcDbEntity
  8
标注
100
AcDbTrace
 10
122.428706290688
 20
187.5229132841582
 30
0.0
 11
122.428706290688
 21
187.3062466174915
 31
0.0
 12
121.778706290688
 22
187.4145799508248
 32
0.0
 13
121.778706290688
 23
187.4145799508248
 33
0.0
  0
MTEXT
  5
36B
330
364
100
AcDbEntity
  8
标注
100
AcDbMText
 10
128.2747692828139
 20
187.4145799508248
 30
0.0
 40
0.65
 41
0.0
 71
     5
 72
     1
  1
\A1;13"
 73
     1
 44
1.0
  0
POINT
  5
36C
330
364
100
AcDbEntity
  8
Defpoints
 62
     0
100
AcDbPoint
 10
134.7708322749399
 20
199.0404312164742
 30
0.0
  0
POINT
  5
36D
330
364
100
AcDbEntity
  8
Defpoints
 62
     0
100
AcDbPoint
 10
121.778706290688
 20
199.0404312164732
 30
0.0
  0
POINT
  5
36E
330
364
100
AcDbEntity
  8
Defpoints
 62
     0
100
AcDbPoint
 10
121.778706290688
 20
187.4145799508248
 30
0.0
  0
ENDBLK
  5
370
330
364
100
AcDbEntity
  8
0
100
AcDbBlockEnd
  0
BLOCK
  5
37C
330
371
100
AcDbEntity
  8
0
100
AcDbBlockBegin
  2
*D28
 70
     1
 10
0.0
 20
0.0
 30
0.0
  3
*D28
  1

  0
LINE
  5
3D0
330
371
100
AcDbEntity
  8
标注
370
    -2
100
AcDbLine
 10
151.786580306436
 20
199.2627934211861
 30
0.0
 11
151.786580306436
 21
187.0985893225397
 31
0.0
  0
LINE
  5
3D1
330
371
100
AcDbEntity
  8
标注
370
    -2
100
AcDbLine
 10
136.038548810373
 20
199.2627934211861
 30
0.0
 11
136.038548810373
 21
187.0985893225397
 31
0.0
  0
LINE
  5
3D2
330
371
100
AcDbEntity
  8
标注
370
    -2
100
AcDbLine
 10
151.1365803064359
 20
187.4185893225396
 30
0.0
 11
146.0625645584045
 21
187.4185893225396
 31
0.0
  0
LINE
  5
3D3
330
371
100
AcDbEntity
  8
标注
370
    -2
100
AcDbLine
 10
136.688548810373
 20
187.4185893225396
 30
0.0
 11
141.7625645584045
 21
187.4185893225396
 31
0.0
  0
SOLID
  5
3D4
330
371
100
AcDbEntity
  8
标注
100
AcDbTrace
 10
151.1365803064359
 20
187.5269226558731
 30
0.0
 11
151.1365803064359
 21
187.3102559892064
 31
0.0
 12
151.786580306436
 22
187.4185893225396
 32
0.0
 13
151.786580306436
 23
187.4185893225396
 33
0.0
  0
SOLID
  5
3D5
330
371
100
AcDbEntity
  8
标注
100
AcDbTrace
 10
136.688548810373
 20
187.5269226558731
 30
0.0
 11
136.688548810373
 21
187.3102559892064
 31
0.0
 12
136.038548810373
 22
187.4185893225396
 32
0.0
 13
136.038548810373
 23
187.4185893225396
 33
0.0
  0
MTEXT
  5
3D6
330
371
100
AcDbEntity
  8
标注
100
AcDbMText
 10
143.9125645584045
 20
187.4185893225396
 30
0.0
 40
0.65
 41
0.0
 71
     5
 72
     1
  1
\A1;15 3/4"
 73
     1
 44
1.0
  0
POINT
  5
3D7
330
371
100
AcDbEntity
  8
Defpoints
 62
     0
100
AcDbPoint
 10
151.786580306436
 20
200.1427934211862
 30
0.0
  0
POINT
  5
3D8
330
371
100
AcDbEntity
  8
Defpoints
 62
     0
100
AcDbPoint
 10
136.038548810373
 20
200.1427934211862
 30
0.0
  0
POINT
  5
3D9
330
371
100
AcDbEntity
  8
Defpoints
 62
     0
100
AcDbPoint
 10
136.038548810373
 20
187.4185893225396
 30
0.0
  0
ENDBLK
  5
37D
330
371
100
AcDbEntity
  8
0
100
AcDbBlockEnd
  0
BLOCK
  5
389
330
37E
100
AcDbEntity
  8
0
100
AcDbBlockBegin
  2
*D29
 70
     1
 10
0.0
 20
0.0
 30
0.0
  3
*D29
  1

  0
LINE
  5
37F
330
37E
100
AcDbEntity
  8
标注
370
    -2
100
AcDbLine
 10
124.4420133773021
 20
208.3081477519064
 30
0.0
 11
115.385427759201
 21
208.3081477519064
 31
0.0
  0
LINE
  5
380
330
37E
100
AcDbEntity
  8
标注
370
    -2
100
AcDbLine
 10
124.4420133773021
 20
189.7727146810424
 30
0.0
 11
115.385427759201
 21
189.7727146810424
 31
0.0
  0
LINE
  5
381
330
37E
100
AcDbEntity
  8
标注
370
    -2
100
AcDbLine
 10
115.705427759201
 20
207.6581477519064
 30
0.0
 11
115.705427759201
 21
201.082097883141
 31
0.0
  0
LINE
  5
382
330
37E
100
AcDbEntity
  8
标注
370
    -2
100
AcDbLine
 10
115.705427759201
 20
190.4227146810424
 30
0.0
 11
115.705427759201
 21
196.9987645498077
 31
0.0
  0
SOLID
  5
383
330
37E
100
AcDbEntity
  8
标注
100
AcDbTrace
 10
115.5970944258677
 20
207.6581477519064
 30
0.0
 11
115.8137610925344
 21
207.6581477519064
 31
0.0
 12
115.705427759201
 22
208.3081477519064
 32
0.0
 13
115.705427759201
 23
208.3081477519064
 33
0.0
  0
SOLID
  5
384
330
37E
100
AcDbEntity
  8
标注
100
AcDbTrace
 10
115.5970944258677
 20
190.4227146810424
 30
0.0
 11
115.8137610925344
 21
190.4227146810424
 31
0.0
 12
115.705427759201
 22
189.7727146810424
 32
0.0
 13
115.705427759201
 23
189.7727146810424
 33
0.0
  0
MTEXT
  5
385
330
37E
100
AcDbEntity
  8
标注
100
AcDbMText
 10
115.705427759201
 20
199.0404312164744
 30
0.0
 40
0.65
 41
0.0
 71
     5
 72
     1
  1
\A1;18 1/2"
 11
0.0000000000000001
 21
1.0
 31
0.0
 73
     1
 44
1.0
  0
POINT
  5
386
330
37E
100
AcDbEntity
  8
Defpoints
 62
     0
100
AcDbPoint
 10
125.3220133773021
 20
208.3081477519064
 30
0.0
  0
POINT
  5
387
330
37E
100
AcDbEntity
  8
Defpoints
 62
     0
100
AcDbPoint
 10
125.3220133773021
 20
189.7727146810424
 30
0.0
  0
POINT
  5
388
330
37E
100
AcDbEntity
  8
Defpoints
 62
     0
100
AcDbPoint
 10
115.705427759201
 20
189.7727146810424
 30
0.0
  0
ENDBLK
  5
38A
330
37E
100
AcDbEntity
  8
0
100
AcDbBlockEnd
  0
BLOCK
  5
396
330
38B
100
AcDbEntity
  8
0
100
AcDbBlockBegin
  2
*D30
 70
     1
 10
0.0
 20
0.0
 30
0.0
  3
*D30
  1

  0
LINE
  5
38C
330
38B
100
AcDbEntity
  8
标注
370
    -2
100
AcDbLine
 10
127.3947692828139
 20
207.3081477519063
 30
0.0
 11
117.7265886745974
 21
207.3081477519063
 31
0.0
  0
LINE
  5
38D
330
38B
100
AcDbEntity
  8
标注
370
    -2
100
AcDbLine
 10
127.394769282814
 20
190.77271468104
 30
0.0
 11
117.7265886745974
 21
190.77271468104
 31
0.0
  0
LINE
  5
38E
330
38B
100
AcDbEntity
  8
标注
370
    -2
100
AcDbLine
 10
118.0465886745974
 20
206.6581477519063
 30
0.0
 11
118.0465886745974
 21
201.0820978831398
 31
0.0
  0
LINE
  5
38F
330
38B
100
AcDbEntity
  8
标注
370
    -2
100
AcDbLine
 10
118.0465886745974
 20
191.4227146810402
 30
0.0
 11
118.0465886745974
 21
196.9987645498065
 31
0.0
  0
SOLID
  5
390
330
38B
100
AcDbEntity
  8
标注
100
AcDbTrace
 10
117.938255341264
 20
206.6581477519063
 30
0.0
 11
118.1549220079307
 21
206.6581477519063
 31
0.0
 12
118.0465886745974
 22
207.3081477519063
 32
0.0
 13
118.0465886745974
 23
207.3081477519063
 33
0.0
  0
SOLID
  5
391
330
38B
100
AcDbEntity
  8
标注
100
AcDbTrace
 10
117.938255341264
 20
191.4227146810402
 30
0.0
 11
118.1549220079307
 21
191.4227146810402
 31
0.0
 12
118.0465886745974
 22
190.77271468104
 32
0.0
 13
118.0465886745974
 23
190.77271468104
 33
0.0
  0
MTEXT
  5
392
330
38B
100
AcDbEntity
  8
标注
100
AcDbMText
 10
118.0465886745974
 20
199.0404312164732
 30
0.0
 40
0.65
 41
0.0
 71
     5
 72
     1
  1
\A1;16 1/2"
 11
0.0000000000000001
 21
1.0
 31
0.0
 73
     1
 44
1.0
  0
POINT
  5
393
330
38B
100
AcDbEntity
  8
Defpoints
 62
     0
100
AcDbPoint
 10
128.2747692828139
 20
207.3081477519063
 30
0.0
  0
POINT
  5
394
330
38B
100
AcDbEntity
  8
Defpoints
 62
     0
100
AcDbPoint
 10
128.2747692828139
 20
190.77271468104
 30
0.0
  0
POINT
  5
395
330
38B
100
AcDbEntity
  8
Defpoints
 62
     0
100
AcDbPoint
 10
118.0465886745974
 20
190.77271468104
 30
0.0
  0
ENDBLK
  5
397
330
38B
100
AcDbEntity
  8
0
100
AcDbBlockEnd
  0
BLOCK
  5
3AD
330
3A2
100
AcDbEntity
  8
0
100
AcDbBlockBegin
  2
*D31
 70
     1
 10
0.0
 20
0.0
 30
0.0
  3
*D31
  1

  0
LINE
  5
3A3
330
3A2
100
AcDbEntity
  8
标注
370
    -2
100
AcDbLine
 10
144.7925645583578
 20
209.5128721613436
 30
0.0
 11
155.5686348027764
 21
209.5128721613436
 31
0.0
  0
LINE
  5
3A4
330
3A2
100
AcDbEntity
  8
标注
370
    -2
100
AcDbLine
 10
144.7925645583307
 20
190.7727146810286
 30
0.0
 11
155.5686348027764
 21
190.7727146810286
 31
0.0
  0
LINE
  5
3A5
330
3A2
100
AcDbEntity
  8
标注
370
    -2
100
AcDbLine
 10
155.2486348027764
 20
208.8628721613436
 30
0.0
 11
155.2486348027764
 21
202.2927934211862
 31
0.0
  0
LINE
  5
3A6
330
3A2
100
AcDbEntity
  8
标注
370
    -2
100
AcDbLine
 10
155.2486348027764
 20
191.4227146810287
 30
0.0
 11
155.2486348027764
 21
197.9927934211861
 31
0.0
  0
SOLID
  5
3A7
330
3A2
100
AcDbEntity
  8
标注
100
AcDbTrace
 10
155.1403014694431
 20
208.8628721613436
 30
0.0
 11
155.3569681361097
 21
208.8628721613436
 31
0.0
 12
155.2486348027764
 22
209.5128721613436
 32
0.0
 13
155.2486348027764
 23
209.5128721613436
 33
0.0
  0
SOLID
  5
3A8
330
3A2
100
AcDbEntity
  8
标注
100
AcDbTrace
 10
155.1403014694431
 20
191.4227146810287
 30
0.0
 11
155.3569681361097
 21
191.4227146810287
 31
0.0
 12
155.2486348027764
 22
190.7727146810286
 32
0.0
 13
155.2486348027764
 23
190.7727146810286
 33
0.0
  0
MTEXT
  5
3A9
330
3A2
100
AcDbEntity
  8
标注
100
AcDbMText
 10
155.2486348027764
 20
200.1427934211862
 30
0.0
 40
0.65
 41
0.0
 71
     5
 72
     1
  1
\A1;18 3/4"
 11
0.0000000000000001
 21
1.0
 31
0.0
 73
     1
 44
1.0
  0
POINT
  5
3AA
330
3A2
100
AcDbEntity
  8
Defpoints
 62
     0
100
AcDbPoint
 10
143.9125645583578
 20
209.5128721613436
 30
0.0
  0
POINT
  5
3AB
330
3A2
100
AcDbEntity
  8
Defpoints
 62
     0
100
AcDbPoint
 10
143.9125645583307
 20
190.7727146810286
 30
0.0
  0
POINT
  5
3AC
330
3A2
100
AcDbEntity
  8
Defpoints
 62
     0
100
AcDbPoint
 10
155.2486348027764
 20
190.7727146810286
 30
0.0
  0
ENDBLK
  5
3AE
330
3A2
100
AcDbEntity
  8
0
100
AcDbBlockEnd
  0
BLOCK
  5
3BA
330
3AF
100
AcDbEntity
  8
0
100
AcDbBlockBegin
  2
*D32
 70
     1
 10
0.0
 20
0.0
 30
0.0
  3
*D32
  1

  0
LINE
  5
491
330
3AF
100
AcDbEntity
  8
标注
370
    -2
100
AcDbLine
 10
119.898706290688
 20
230.1975300276099
 30
0.0
 11
117.7668041979879
 21
230.1975300276099
 31
0.0
  0
LINE
  5
492
330
3AF
100
AcDbEntity
  8
标注
370
    -2
100
AcDbLine
 10
125.1668003162917
 20
222.2290260906021
 30
0.0
 11
117.7668041979879
 21
222.2290260906021
 31
0.0
  0
LINE
  5
493
330
3AF
100
AcDbEntity
  8
标注
370
    -2
100
AcDbLine
 10
118.0868041979879
 20
229.5475300276099
 30
0.0
 11
118.0868041979879
 21
226.8466113924393
 31
0.0
  0
LINE
  5
494
330
3AF
100
AcDbEntity
  8
标注
370
    -2
100
AcDbLine
 10
118.0868041979879
 20
222.8790260906021
 30
0.0
 11
118.0868041979879
 21
225.5799447257726
 31
0.0
  0
SOLID
  5
495
330
3AF
100
AcDbEntity
  8
标注
100
AcDbTrace
 10
117.9784708646546
 20
229.5475300276099
 30
0.0
 11
118.1951375313212
 21
229.5475300276099
 31
0.0
 12
118.0868041979879
 22
230.1975300276099
 32
0.0
 13
118.0868041979879
 23
230.1975300276099
 33
0.0
  0
SOLID
  5
496
330
3AF
100
AcDbEntity
  8
标注
100
AcDbTrace
 10
117.9784708646545
 20
222.8790260906021
 30
0.0
 11
118.1951375313212
 21
222.8790260906021
 31
0.0
 12
118.0868041979879
 22
222.2290260906021
 32
0.0
 13
118.0868041979879
 23
222.2290260906021
 33
0.0
  0
MTEXT
  5
497
330
3AF
100
AcDbEntity
  8
标注
100
AcDbMText
 10
118.0868041979878
 20
226.213278059106
 30
0.0
 40
0.65
 41
0.0
 71
     5
 72
     1
  1
\A1;8"
 11
0.0000000000000001
 21
1.0
 31
0.0
 73
     1
 44
1.0
  0
POINT
  5
498
330
3AF
100
AcDbEntity
  8
Defpoints
 62
     0
100
AcDbPoint
 10
120.778706290688
 20
230.1975300276099
 30
0.0
  0
POINT
  5
499
330
3AF
100
AcDbEntity
  8
Defpoints
 62
     0
100
AcDbPoint
 10
126.0468003162917
 20
222.2290260906021
 30
0.0
  0
POINT
  5
49A
330
3AF
100
AcDbEntity
  8
Defpoints
 62
     0
100
AcDbPoint
 10
118.0868041979879
 20
222.2290260906021
 30
0.0
  0
ENDBLK
  5
3BB
330
3AF
100
AcDbEntity
  8
0
100
AcDbBlockEnd
  0
BLOCK
  5
3EC
330
3E2
100
AcDbEntity
  8
0
100
AcDbBlockBegin
  2
*D33
 70
     1
 10
0.0
 20
0.0
 30
0.0
  3
*D33
  1

  0
LINE
  5
487
330
3E2
100
AcDbEntity
  8
标注
370
    -2
100
AcDbLine
 10
146.926800316293
 20
220.1817819961139
 30
0.0
 11
155.5833674896646
 21
220.1817819961139
 31
0.0
  0
LINE
  5
488
330
3E2
100
AcDbEntity
  8
标注
370
    -2
100
AcDbLine
 10
153.6665803064359
 20
230.1975300276099
 30
0.0
 11
155.5833674896646
 21
230.1975300276099
 31
0.0
  0
LINE
  5
489
330
3E2
100
AcDbEntity
  8
标注
370
    -2
100
AcDbLine
 10
155.2633674896647
 20
220.8317819961139
 30
0.0
 11
155.2633674896647
 21
224.3938226785286
 31
0.0
  0
LINE
  5
48A
330
3E2
100
AcDbEntity
  8
标注
370
    -2
100
AcDbLine
 10
155.2633674896647
 20
229.5475300276099
 30
0.0
 11
155.2633674896647
 21
225.9854893451952
 31
0.0
  0
SOLID
  5
48B
330
3E2
100
AcDbEntity
  8
标注
100
AcDbTrace
 10
155.1550341563313
 20
220.8317819961139
 30
0.0
 11
155.371700822998
 21
220.8317819961139
 31
0.0
 12
155.2633674896647
 22
220.1817819961139
 32
0.0
 13
155.2633674896647
 23
220.1817819961139
 33
0.0
  0
SOLID
  5
48C
330
3E2
100
AcDbEntity
  8
标注
100
AcDbTrace
 10
155.1550341563313
 20
229.5475300276099
 30
0.0
 11
155.371700822998
 21
229.5475300276099
 31
0.0
 12
155.2633674896647
 22
230.1975300276099
 32
0.0
 13
155.2633674896647
 23
230.1975300276099
 33
0.0
  0
MTEXT
  5
48D
330
3E2
100
AcDbEntity
  8
标注
100
AcDbMText
 10
155.2633674896646
 20
225.1896560118619
 30
0.0
 40
0.65
 41
0.0
 71
     5
 72
     1
  1
\A1;10"
 11
0.0000000000000001
 21
1.0
 31
0.0
 73
     1
 44
1.0
  0
POINT
  5
48E
330
3E2
100
AcDbEntity
  8
Defpoints
 62
     0
100
AcDbPoint
 10
146.046800316293
 20
220.1817819961139
 30
0.0
  0
POINT
  5
48F
330
3E2
100
AcDbEntity
  8
Defpoints
 62
     0
100
AcDbPoint
 10
152.7865803064359
 20
230.1975300276099
 30
0.0
  0
POINT
  5
490
330
3E2
100
AcDbEntity
  8
Defpoints
 62
     0
100
AcDbPoint
 10
155.2633674896647
 20
230.1975300276099
 30
0.0
  0
ENDBLK
  5
3ED
330
3E2
100
AcDbEntity
  8
0
100
AcDbBlockEnd
  0
BLOCK
  5
44B
330
445
100
AcDbEntity
  8
0
100
AcDbBlockBegin
  2
*D35
 70
     1
 10
0.0
 20
0.0
 30
0.0
  3
*D35
  1

  0
LINE
  5
4A0
330
445
100
AcDbEntity
  8
标注
370
    -2
100
AcDbLine
 10
149.8892008267283
 20
222.038461727769
 30
0.0
 11
150.4378408265778
 21
221.6899016173645
 31
0.0
  0
MTEXT
  5
4A1
330
445
100
AcDbEntity
  8
标注
100
AcDbMText
 10
149.0803085192579
 20
222.5523644546473
 30
0.0
 40
0.65
 41
0.0
 71
     5
 72
     1
  1
\A1;R2"
 11
0.8440615382299972
 21
-0.5362463236991104
 31
0.0
 73
     1
 44
1.0
  0
SOLID
  5
4A2
330
445
100
AcDbEntity
  8
标注
100
AcDbTrace
 10
150.4959341783119
 20
221.7813416173394
 30
0.0
 11
150.3797474748437
 21
221.5984616173896
 31
0.0
 12
150.9864808264273
 22
221.3413415069601
 32
0.0
 13
150.9864808264273
 23
221.3413415069601
 33
0.0
  0
POINT
  5
4A3
330
445
100
AcDbEntity
  8
Defpoints
 62
     0
100
AcDbPoint
 10
150.9864808264273
 20
221.3413415069601
 30
0.0
  0
POINT
  5
4A4
330
445
100
AcDbEntity
  8
Defpoints
 62
     0
100
AcDbPoint
 10
149.2983577499673
 20
222.4138341543584
 30
0.0
  0
ENDBLK
  5
44C
330
445
100
AcDbEntity
  8
0
100
AcDbBlockEnd
  0
BLOCK
  5
474
330
46E
100
AcDbEntity
  8
0
100
AcDbBlockBegin
  2
*D37
 70
     1
 10
0.0
 20
0.0
 30
0.0
  3
*D37
  1

  0
LINE
  5
49B
330
46E
100
AcDbEntity
  8
标注
370
    -2
100
AcDbLine
 10
133.0241074914108
 20
223.946746986288
 30
0.0
 11
133.5395940317152
 21
223.550800491462
 31
0.0
  0
MTEXT
  5
49C
330
46E
100
AcDbEntity
  8
标注
100
AcDbMText
 10
132.2640952845517
 20
224.5305142543007
 30
0.0
 40
0.65
 41
0.0
 71
     5
 72
     1
  1
\A1;R2"
 11
0.7930562158529552
 21
-0.609148453578429
 31
0.0
 73
     1
 44
1.0
  0
SOLID
  5
49D
330
46E
100
AcDbEntity
  8
标注
100
AcDbTrace
 10
133.6055851141862
 20
223.6367149148462
 30
0.0
 11
133.4736029492442
 21
223.464886068078
 31
0.0
 12
134.0550805720196
 22
223.1548539966361
 32
0.0
 13
134.0550805720196
 23
223.1548539966361
 33
0.0
  0
POINT
  5
49E
330
46E
100
AcDbEntity
  8
Defpoints
 62
     0
100
AcDbPoint
 10
134.0550805720196
 20
223.1548539966361
 30
0.0
  0
POINT
  5
49F
330
46E
100
AcDbEntity
  8
Defpoints
 62
     0
100
AcDbPoint
 10
132.4689681403137
 20
224.373150903793
 30
0.0
  0
ENDBLK
  5
475
330
46E
100
AcDbEntity
  8
0
100
AcDbBlockEnd
  0
ENDSEC
  0
SECTION
  2
ENTITIES
  0
ARC
  5
1ED
330
21
100
AcDbEntity
  8
虚线
 62
    11
 48
0.15
370
    35
100
AcDbCircle
 10
124.4991606231833
 20
65.07375023792622
 30
0.0
 40
3.293307086614173
100
AcDbArc
 50
95.60687072650223
 51
174.4700400460036
  0
ARC
  5
1EE
330
21
100
AcDbEntity
  8
虚线
 62
    11
 48
0.15
370
    35
100
AcDbCircle
 10
127.2302075883459
 20
37.25472895414981
 30
0.0
 40
31.24606299212599
100
AcDbArc
 50
90.0
 51
95.60687072650223
  0
LINE
  5
1EF
330
21
100
AcDbEntity
  8
虚线
 62
    11
 48
0.15
370
    35
100
AcDbLine
 10
127.2302075883459
 20
68.50079194627578
 30
0.0
 11
135.3677371590133
 21
68.50079194627578
 31
0.0
  0
ARC
  5
1F0
330
21
100
AcDbEntity
  8
虚线
 62
    11
 48
0.15
370
    35
100
AcDbCircle
 10
135.3677371590133
 20
69.30079194627579
 30
0.0
 40
0.8
100
AcDbArc
 50
270.0
 51
327.215981503853
  0
ARC
  5
1F1
330
21
100
AcDbEntity
  8
虚线
 62
    11
 48
0.15
370
    35
100
AcDbCircle
 10
139.1400439613961
 20
66.87119505580493
 30
0.0
 40
3.687007874015747
100
AcDbArc
 50
94.52582694667567
 51
147.215981503853
  0
ARC
  5
1F2
330
21
100
AcDbEntity
  8
虚线
 62
    11
 48
0.15
370
    35
100
AcDbCircle
 10
142.8680028639364
 20
19.77441399350835
 30
0.0
 40
50.93110236220472
100
AcDbArc
 50
85.47417305342889
 51
94.52582694667567
  0
ARC
  5
1F3
330
21
100
AcDbEntity
  8
虚线
 62
    11
 48
0.15
370
    35
100
AcDbCircle
 10
146.5959617664767
 20
66.87119505580493
 30
0.0
 40
3.687007874015747
100
AcDbArc
 50
4.529676129561186
 51
85.47417305342889
  0
ARC
  5
1F4
330
21
100
AcDbEntity
  8
虚线
 62
    11
 48
0.15
370
    35
100
AcDbCircle
 10
79.87587687968442
 20
61.58543761555563
 30
0.0
 40
70.61614173228345
100
AcDbArc
 50
355.4703238704389
 51
4.529676129561186
  0
ARC
  5
1F5
330
21
100
AcDbEntity
  8
虚线
 62
    11
 48
0.15
370
    35
100
AcDbCircle
 10
146.5959617664767
 20
56.29968017530632
 30
0.0
 40
3.687007874015747
100
AcDbArc
 50
274.5258269466757
 51
355.4703238704389
  0
ARC
  5
1F6
330
21
100
AcDbEntity
  8
虚线
 62
    11
 48
0.15
370
    35
100
AcDbCircle
 10
142.8680028639364
 20
103.3964612376029
 30
0.0
 40
50.93110236220472
100
AcDbArc
 50
270.0
 51
274.5258269465712
  0
LINE
  5
1F7
330
21
100
AcDbEntity
  8
虚线
 62
    11
 48
0.15
370
    35
100
AcDbLine
 10
127.2302075883459
 20
52.46535887540971
 30
0.0
 11
142.8680028639364
 21
52.46535887540971
 31
0.0
  0
ARC
  5
1F8
330
21
100
AcDbEntity
  8
虚线
 62
    11
 48
0.15
370
    35
100
AcDbCircle
 10
127.2302075883459
 20
83.71142186753571
 30
0.0
 40
31.24606299212599
100
AcDbArc
 50
264.3931292734978
 51
270.0
  0
ARC
  5
1F9
330
21
100
AcDbEntity
  8
虚线
 62
    11
 48
0.15
370
    35
100
AcDbCircle
 10
124.4991606231833
 20
55.89240058375935
 30
0.0
 40
3.293307086614173
100
AcDbArc
 50
185.5299599539963
 51
264.3931292734978
  0
ARC
  5
1FA
330
21
100
AcDbEntity
  8
虚线
 62
    11
 48
0.15
370
    35
100
AcDbCircle
 10
171.9152469584247
 20
60.48307541084272
 30
0.0
 40
50.93110236220472
100
AcDbArc
 50
174.4700400460036
 51
185.5299599539963
  0
ARC
  5
1FB
330
21
100
AcDbEntity
  8
截面层
 62
     1
 48
0.2
370
    35
100
AcDbCircle
 10
135.3851757770386
 20
99.28556313024152
 30
0.0
 40
0.8
100
AcDbArc
 50
270.0
 51
325.5509695917234
  0
ARC
  5
1FC
330
21
100
AcDbEntity
  8
截面层
 62
     1
 48
0.2
370
    35
100
AcDbCircle
 10
139.2914533021347
 20
96.60596623977063
 30
0.0
 40
3.937007874015747
100
AcDbArc
 50
94.52582694667567
 51
145.5509695917233
  0
ARC
  5
1FD
330
21
100
AcDbEntity
  8
截面层
 62
     1
 48
0.2
370
    35
100
AcDbCircle
 10
143.019412204675
 20
49.50918517747403
 30
0.0
 40
51.18110236220473
100
AcDbArc
 50
85.47417305342889
 51
94.52582694667567
  0
ARC
  5
1FE
330
21
100
AcDbEntity
  8
截面层
 62
     1
 48
0.2
370
    35
100
AcDbCircle
 10
146.7473711072153
 20
96.60596623977063
 30
0.0
 40
3.937007874015747
100
AcDbArc
 50
4.529676129561186
 51
85.47417305342889
  0
ARC
  5
1FF
330
21
100
AcDbEntity
  8
截面层
 62
     1
 48
0.2
370
    35
100
AcDbCircle
 10
80.02728622042303
 20
91.32020879952131
 30
0.0
 40
70.86614173228347
100
AcDbArc
 50
355.4703238704389
 51
4.529676129561186
  0
ARC
  5
200
330
21
100
AcDbEntity
  8
截面层
 62
     1
 48
0.2
370
    35
100
AcDbCircle
 10
143.019412204675
 20
133.1312324215686
 30
0.0
 40
51.18110236220473
100
AcDbArc
 50
270.0
 51
274.5258269465712
  0
ARC
  5
201
330
21
100
AcDbEntity
  8
截面层
 62
     1
 48
0.2
370
    35
100
AcDbCircle
 10
146.7473711072153
 20
86.034451359272
 30
0.0
 40
3.937007874015747
100
AcDbArc
 50
274.5258269466757
 51
355.4703238704389
  0
LINE
  5
202
330
21
100
AcDbEntity
  8
截面层
 62
     1
 48
0.2
370
    35
100
AcDbLine
 10
127.3816169290845
 20
81.95013005937541
 30
0.0
 11
143.019412204675
 21
81.95013005937537
 31
0.0
  0
ARC
  5
203
330
21
100
AcDbEntity
  8
截面层
 62
     1
 48
0.2
370
    35
100
AcDbCircle
 10
127.3816169290845
 20
113.4461930515014
 30
0.0
 40
31.49606299212599
100
AcDbArc
 50
264.3931292734978
 51
270.0
  0
ARC
  5
204
330
21
100
AcDbEntity
  8
截面层
 62
     1
 48
0.2
370
    35
100
AcDbCircle
 10
124.6505699639219
 20
85.62717176772505
 30
0.0
 40
3.543307086614173
100
AcDbArc
 50
185.5299599539963
 51
264.3931292734978
  0
ARC
  5
205
330
21
100
AcDbEntity
  8
截面层
 62
     1
 48
0.2
370
    35
100
AcDbCircle
 10
172.0666562991633
 20
90.21784659480841
 30
0.0
 40
51.18110236220473
100
AcDbArc
 50
174.4700400460036
 51
185.5299599539963
  0
ARC
  5
206
330
21
100
AcDbEntity
  8
截面层
 62
     1
 48
0.2
370
    35
100
AcDbCircle
 10
124.6505699639219
 20
94.8085214218919
 30
0.0
 40
3.543307086614173
100
AcDbArc
 50
95.60687072650223
 51
174.4700400460036
  0
LINE
  5
207
330
21
100
AcDbEntity
  8
截面层
 62
     1
 48
0.2
370
    35
100
AcDbLine
 10
127.3816169290845
 20
98.48556313024149
 30
0.0
 11
135.3851757770386
 21
98.48556313024149
 31
0.0
  0
ARC
  5
208
330
21
100
AcDbEntity
  8
截面层
 62
     1
 48
0.2
370
    35
100
AcDbCircle
 10
127.3816169290845
 20
66.9895001381155
 30
0.0
 40
31.49606299212599
100
AcDbArc
 50
90.0
 51
95.60687072650223
  0
ARC
  5
209
330
21
100
AcDbEntity
  8
虚线
 62
     3
 48
0.3
370
    35
100
AcDbCircle
 10
147.3063254610916
 20
126.558085059532
 30
0.0
 40
4.187007874015748
100
AcDbArc
 50
4.529676129561186
 51
85.47417305342889
  0
ARC
  5
20A
330
21
100
AcDbEntity
  8
虚线
 62
     3
 48
0.3
370
    35
100
AcDbCircle
 10
143.5783665585513
 20
79.4613039972354
 30
0.0
 40
51.43110236220472
100
AcDbArc
 50
85.47417305342889
 51
94.52582694667567
  0
ARC
  5
20B
330
21
100
AcDbEntity
  8
虚线
 62
     3
 48
0.3
370
    35
100
AcDbCircle
 10
139.850407656011
 20
126.558085059532
 30
0.0
 40
4.187007874015748
100
AcDbArc
 50
94.52582694667567
 51
144.0240359943858
  0
ARC
  5
20C
330
21
100
AcDbEntity
  8
虚线
 62
     3
 48
0.3
370
    35
100
AcDbCircle
 10
135.8146041926547
 20
129.4876819500029
 30
0.0
 40
0.8
100
AcDbArc
 50
269.9999999999968
 51
324.024035994385
  0
LINE
  5
20D
330
21
100
AcDbEntity
  8
虚线
 62
     3
 48
0.3
370
    35
100
AcDbLine
 10
127.9405712829607
 20
128.6876819500028
 30
0.0
 11
135.8146041926547
 21
128.6876819500028
 31
0.0
  0
ARC
  5
20E
330
21
100
AcDbEntity
  8
虚线
 62
     3
 48
0.3
370
    35
100
AcDbCircle
 10
127.9405712829607
 20
96.94161895787686
 30
0.0
 40
31.74606299212598
100
AcDbArc
 50
90.0
 51
95.60687072650223
  0
ARC
  5
20F
330
21
100
AcDbEntity
  8
虚线
 62
     3
 48
0.3
370
    35
100
AcDbCircle
 10
125.2095243177982
 20
124.7606402416532
 30
0.0
 40
3.793307086614173
100
AcDbArc
 50
95.60687072650223
 51
174.4700400460036
  0
ARC
  5
210
330
21
100
AcDbEntity
  8
虚线
 62
     3
 48
0.3
370
    35
100
AcDbCircle
 10
172.6256106530396
 20
120.1699654145698
 30
0.0
 40
51.43110236220472
100
AcDbArc
 50
174.4700400460036
 51
185.5299599539963
  0
ARC
  5
211
330
21
100
AcDbEntity
  8
虚线
 62
     3
 48
0.3
370
    35
100
AcDbCircle
 10
125.2095243177982
 20
115.5792905874864
 30
0.0
 40
3.793307086614173
100
AcDbArc
 50
185.5299599539963
 51
264.3931292734978
  0
ARC
  5
212
330
21
100
AcDbEntity
  8
虚线
 62
     3
 48
0.3
370
    35
100
AcDbCircle
 10
127.9405712829607
 20
143.3983118712627
 30
0.0
 40
31.74606299212598
100
AcDbArc
 50
264.3931292734978
 51
270.0
  0
LINE
  5
213
330
21
100
AcDbEntity
  8
虚线
 62
     3
 48
0.3
370
    35
100
AcDbLine
 10
127.9405712829607
 20
111.6522488791368
 30
0.0
 11
143.5783665585513
 21
111.6522488791368
 31
0.0
  0
ARC
  5
214
330
21
100
AcDbEntity
  8
虚线
 62
     3
 48
0.3
370
    35
100
AcDbCircle
 10
80.58624057429931
 20
121.2723276192827
 30
0.0
 40
71.11614173228345
100
AcDbArc
 50
355.4703238704389
 51
4.529676129561186
  0
ARC
  5
215
330
21
100
AcDbEntity
  8
虚线
 62
     3
 48
0.3
370
    35
100
AcDbCircle
 10
143.5783665585513
 20
163.08335124133
 30
0.0
 40
51.43110236220472
100
AcDbArc
 50
270.0
 51
274.5258269465712
  0
ARC
  5
216
330
21
100
AcDbEntity
  8
虚线
 62
     3
 48
0.3
370
    35
100
AcDbCircle
 10
147.3063254610916
 20
115.9865701790333
 30
0.0
 40
4.187007874015748
100
AcDbArc
 50
274.5258269466757
 51
355.4703238704389
  0
ARC
  5
217
330
21
100
AcDbEntity
  8
0
100
AcDbCircle
 10
144.1619238400837
 20
201.0505306280072
 30
0.0
 40
51.18110236220473
100
AcDbArc
 50
265.4741730533243
 51
270.0
  0
ARC
  5
218
330
21
100
AcDbEntity
  8
0
100
AcDbCircle
 10
128.5241285644932
 20
181.36549125794
 30
0.0
 40
31.49606299212599
100
AcDbArc
 50
270.0
 51
275.6068707265022
  0
ARC
  5
219
330
21
100
AcDbEntity
  8
0
100
AcDbCircle
 10
131.2551755296558
 20
153.5464699741636
 30
0.0
 40
3.543307086614173
100
AcDbArc
 50
275.6068707265022
 51
354.4700400460036
  0
ARC
  5
21A
330
21
100
AcDbEntity
  8
0
100
AcDbCircle
 10
140.4339649375434
 20
153.9537495657106
 30
0.0
 40
3.937007874015747
100
AcDbArc
 50
184.5296761295612
 51
265.4741730534289
  0
ARC
  5
21B
330
21
100
AcDbEntity
  8
0
100
AcDbCircle
 10
140.4339649375434
 20
164.5252644462092
 30
0.0
 40
3.937007874015747
100
AcDbArc
 50
145.5509695917229
 51
175.4703238704388
  0
ARC
  5
21C
330
21
100
AcDbEntity
  8
0
100
AcDbCircle
 10
128.5241285644932
 20
134.9087983445541
 30
0.0
 40
31.49606299212599
100
AcDbArc
 50
84.39312927349776
 51
90.0
  0
ARC
  5
21D
330
21
100
AcDbEntity
  8
0
100
AcDbCircle
 10
207.1540498243356
 20
159.2395070059599
 30
0.0
 40
70.86614173228347
100
AcDbArc
 50
175.4703238704388
 51
184.5296761295612
  0
ARC
  5
21E
330
21
100
AcDbEntity
  8
0
100
AcDbCircle
 10
83.8390891944145
 20
158.137144801248
 30
0.0
 40
51.18110236220473
100
AcDbArc
 50
354.4700400459906
 51
5.529959953996367
  0
ARC
  5
21F
330
21
100
AcDbEntity
  8
0
100
AcDbCircle
 10
131.2551755296559
 20
162.7278196283305
 30
0.0
 40
3.543307086614173
100
AcDbArc
 50
5.529959953996367
 51
84.39312927349776
  0
ARC
  5
220
330
21
100
AcDbEntity
  8
虚线
 62
    11
 48
0.15
370
    35
100
AcDbCircle
 10
136.6616581351606
 20
166.9548613366801
 30
0.0
 40
0.8
100
AcDbArc
 50
270.0
 51
327.2159815038534
  0
ARC
  5
221
330
21
100
AcDbEntity
  8
虚线
 62
     3
 48
0.3
370
    35
100
AcDbCircle
 10
136.3981614741872
 20
167.4548613366801
 30
0.0
 40
0.8
100
AcDbArc
 50
269.9999999999968
 51
324.0240359943843
  0
ARC
  5
222
330
21
100
AcDbEntity
  8
截面层
 62
     1
 48
0.2
370
    35
100
AcDbCircle
 10
136.5276874124473
 20
167.2048613366801
 30
0.0
 40
0.8
100
AcDbArc
 50
270.0
 51
325.5509695917234
  0
LINE
  5
223
330
21
100
AcDbEntity
  8
虚线
 62
    11
 48
0.15
370
    35
100
AcDbLine
 10
128.5241285644932
 20
150.119428265814
 30
0.0
 11
144.1619238400837
 21
150.119428265814
 31
0.0
  0
LINE
  5
224
330
21
100
AcDbEntity
  8
截面层
 62
     1
 48
0.2
370
    35
100
AcDbLine
 10
128.5241285644932
 20
149.869428265814
 30
0.0
 11
144.1619238400837
 21
149.8694282658139
 31
0.0
  0
LINE
  5
225
330
21
100
AcDbEntity
  8
虚线
 62
     3
 48
0.3
370
    35
100
AcDbLine
 10
128.5241285644932
 20
149.619428265814
 30
0.0
 11
144.1619238400837
 21
149.619428265814
 31
0.0
  0
LINE
  5
226
330
21
100
AcDbEntity
  8
虚线
 62
    11
 48
0.15
370
    35
100
AcDbLine
 10
128.5241285644932
 20
166.1548613366801
 30
0.0
 11
136.6616581351606
 21
166.1548613366801
 31
0.0
  0
LINE
  5
227
330
21
100
AcDbEntity
  8
截面层
 62
     1
 48
0.2
370
    35
100
AcDbLine
 10
128.5241285644932
 20
166.4048613366801
 30
0.0
 11
136.5276874124473
 21
166.4048613366801
 31
0.0
  0
LINE
  5
228
330
21
100
AcDbEntity
  8
虚线
 62
     3
 48
0.3
370
    35
100
AcDbLine
 10
128.5241285644932
 20
166.6548613366801
 30
0.0
 11
136.3981614741871
 21
166.6548613366801
 31
0.0
  0
ARC
  5
229
330
21
100
AcDbEntity
  8
虚线
 62
    11
 48
0.15
370
    35
100
AcDbCircle
 10
128.5241285644932
 20
134.9087983445541
 30
0.0
 40
31.24606299212599
100
AcDbArc
 50
90.0
 51
95.60687072650223
  0
ARC
  5
22A
330
21
100
AcDbEntity
  8
虚线
 62
    11
 48
0.15
370
    35
100
AcDbCircle
 10
125.7930815993306
 20
162.7278196283305
 30
0.0
 40
3.293307086614173
100
AcDbArc
 50
95.60687072650223
 51
174.4700400460036
  0
ARC
  5
22B
330
21
100
AcDbEntity
  8
虚线
 62
    11
 48
0.15
370
    35
100
AcDbCircle
 10
173.2091679345719
 20
158.137144801247
 30
0.0
 40
50.93110236220472
100
AcDbArc
 50
174.4700400460036
 51
185.5299599539963
  0
ARC
  5
22C
330
21
100
AcDbEntity
  8
虚线
 62
    11
 48
0.15
370
    35
100
AcDbCircle
 10
125.7930815993306
 20
153.5464699741636
 30
0.0
 40
3.293307086614173
100
AcDbArc
 50
185.5299599539963
 51
264.3931292734978
  0
ARC
  5
22D
330
21
100
AcDbEntity
  8
虚线
 62
    11
 48
0.15
370
    35
100
AcDbCircle
 10
128.5241285644932
 20
181.36549125794
 30
0.0
 40
31.24606299212599
100
AcDbArc
 50
264.3931292734978
 51
270.0
  0
ARC
  5
22E
330
21
100
AcDbEntity
  8
虚线
 62
    11
 48
0.15
370
    35
100
AcDbCircle
 10
144.1619238400837
 20
201.0505306280072
 30
0.0
 40
50.93110236220472
100
AcDbArc
 50
270.0
 51
274.5258269465712
  0
ARC
  5
22F
330
21
100
AcDbEntity
  8
虚线
 62
    11
 48
0.15
370
    35
100
AcDbCircle
 10
147.889882742624
 20
153.9537495657106
 30
0.0
 40
3.687007874015747
100
AcDbArc
 50
274.5258269466757
 51
355.4703238704389
  0
ARC
  5
230
330
21
100
AcDbEntity
  8
虚线
 62
    11
 48
0.15
370
    35
100
AcDbCircle
 10
81.16979785583174
 20
159.2395070059599
 30
0.0
 40
70.61614173228345
100
AcDbArc
 50
355.4703238704389
 51
4.529676129561186
  0
ARC
  5
231
330
21
100
AcDbEntity
  8
虚线
 62
    11
 48
0.15
370
    35
100
AcDbCircle
 10
147.889882742624
 20
164.5252644462092
 30
0.0
 40
3.687007874015747
100
AcDbArc
 50
4.529676129561186
 51
85.47417305342889
  0
ARC
  5
232
330
21
100
AcDbEntity
  8
虚线
 62
    11
 48
0.15
370
    35
100
AcDbCircle
 10
144.1619238400837
 20
117.4284833839126
 30
0.0
 40
50.93110236220472
100
AcDbArc
 50
85.47417305342889
 51
94.52582694667567
  0
ARC
  5
233
330
21
100
AcDbEntity
  8
虚线
 62
    11
 48
0.15
370
    35
100
AcDbCircle
 10
140.4339649375434
 20
164.5252644462092
 30
0.0
 40
3.687007874015747
100
AcDbArc
 50
94.52582694667567
 51
147.2159815038537
  0
ARC
  5
234
330
21
100
AcDbEntity
  8
虚线
 62
     3
 48
0.3
370
    35
100
AcDbCircle
 10
144.1619238400837
 20
201.0505306280072
 30
0.0
 40
51.43110236220472
100
AcDbArc
 50
270.0
 51
274.5258269465712
  0
ARC
  5
235
330
21
100
AcDbEntity
  8
虚线
 62
     3
 48
0.3
370
    35
100
AcDbCircle
 10
147.889882742624
 20
153.9537495657106
 30
0.0
 40
4.187007874015748
100
AcDbArc
 50
274.5258269466757
 51
355.4703238704389
  0
ARC
  5
236
330
21
100
AcDbEntity
  8
虚线
 62
     3
 48
0.3
370
    35
100
AcDbCircle
 10
81.16979785583174
 20
159.2395070059599
 30
0.0
 40
71.11614173228345
100
AcDbArc
 50
355.4703238704389
 51
4.529676129561186
  0
ARC
  5
237
330
21
100
AcDbEntity
  8
虚线
 62
     3
 48
0.3
370
    35
100
AcDbCircle
 10
147.889882742624
 20
164.5252644462092
 30
0.0
 40
4.187007874015748
100
AcDbArc
 50
4.529676129561186
 51
85.47417305342889
  0
ARC
  5
238
330
21
100
AcDbEntity
  8
虚线
 62
     3
 48
0.3
370
    35
100
AcDbCircle
 10
144.1619238400837
 20
117.4284833839126
 30
0.0
 40
51.43110236220472
100
AcDbArc
 50
85.47417305342889
 51
94.52582694667567
  0
ARC
  5
239
330
21
100
AcDbEntity
  8
虚线
 62
     3
 48
0.3
370
    35
100
AcDbCircle
 10
140.4339649375434
 20
164.5252644462092
 30
0.0
 40
4.187007874015748
100
AcDbArc
 50
94.52582694667567
 51
144.024035994385
  0
ARC
  5
23A
330
21
100
AcDbEntity
  8
虚线
 62
     3
 48
0.3
370
    35
100
AcDbCircle
 10
128.5241285644932
 20
134.9087983445541
 30
0.0
 40
31.74606299212598
100
AcDbArc
 50
90.0
 51
95.60687072650223
  0
ARC
  5
23B
330
21
100
AcDbEntity
  8
虚线
 62
     3
 48
0.3
370
    35
100
AcDbCircle
 10
125.7930815993306
 20
162.7278196283305
 30
0.0
 40
3.793307086614173
100
AcDbArc
 50
95.60687072650223
 51
174.4700400460036
  0
ARC
  5
23C
330
21
100
AcDbEntity
  8
虚线
 62
     3
 48
0.3
370
    35
100
AcDbCircle
 10
128.5241285644932
 20
181.36549125794
 30
0.0
 40
31.74606299212598
100
AcDbArc
 50
264.3931292734978
 51
270.0
  0
ARC
  5
23D
330
21
100
AcDbEntity
  8
虚线
 62
     3
 48
0.3
370
    35
100
AcDbCircle
 10
173.2091679345719
 20
158.137144801247
 30
0.0
 40
51.43110236220472
100
AcDbArc
 50
174.4700400460036
 51
185.5299599539963
  0
ARC
  5
23E
330
21
100
AcDbEntity
  8
虚线
 62
     3
 48
0.3
370
    35
100
AcDbCircle
 10
125.7930815993306
 20
153.5464699741636
 30
0.0
 40
3.793307086614173
100
AcDbArc
 50
185.5299599539963
 51
264.3931292734978
  0
ARC
  5
23F
330
21
100
AcDbEntity
  8
截面层
 62
     1
 48
0.2
370
    35
100
AcDbCircle
 10
173.2091679345719
 20
158.137144801247
 30
0.0
 40
51.18110236220473
100
AcDbArc
 50
174.4700400460036
 51
185.5299599539963
  0
ARC
  5
240
330
21
100
AcDbEntity
  8
截面层
 62
     1
 48
0.2
370
    35
100
AcDbCircle
 10
128.5241285644932
 20
181.36549125794
 30
0.0
 40
31.49606299212599
100
AcDbArc
 50
264.3931292734978
 51
270.0
  0
ARC
  5
241
330
21
100
AcDbEntity
  8
截面层
 62
     1
 48
0.2
370
    35
100
AcDbCircle
 10
125.7930815993306
 20
153.5464699741636
 30
0.0
 40
3.543307086614173
100
AcDbArc
 50
185.5299599539963
 51
264.3931292734978
  0
ARC
  5
242
330
21
100
AcDbEntity
  8
截面层
 62
     1
 48
0.2
370
    35
100
AcDbCircle
 10
128.5241285644932
 20
134.9087983445541
 30
0.0
 40
31.49606299212599
100
AcDbArc
 50
90.0
 51
95.60687072650223
  0
ARC
  5
243
330
21
100
AcDbEntity
  8
截面层
 62
     1
 48
0.2
370
    35
100
AcDbCircle
 10
125.7930815993306
 20
162.7278196283305
 30
0.0
 40
3.543307086614173
100
AcDbArc
 50
95.60687072650223
 51
174.4700400460036
  0
ARC
  5
244
330
21
100
AcDbEntity
  8
截面层
 62
     1
 48
0.2
370
    35
100
AcDbCircle
 10
81.16979785583174
 20
159.2395070059599
 30
0.0
 40
70.86614173228347
100
AcDbArc
 50
355.4703238704389
 51
4.529676129561186
  0
ARC
  5
245
330
21
100
AcDbEntity
  8
截面层
 62
     1
 48
0.2
370
    35
100
AcDbCircle
 10
147.889882742624
 20
153.9537495657106
 30
0.0
 40
3.937007874015747
100
AcDbArc
 50
274.5258269466757
 51
355.4703238704389
  0
ARC
  5
246
330
21
100
AcDbEntity
  8
截面层
 62
     1
 48
0.2
370
    35
100
AcDbCircle
 10
144.1619238400837
 20
117.4284833839126
 30
0.0
 40
51.18110236220473
100
AcDbArc
 50
85.47417305342889
 51
94.52582694667567
  0
ARC
  5
247
330
21
100
AcDbEntity
  8
截面层
 62
     1
 48
0.2
370
    35
100
AcDbCircle
 10
147.889882742624
 20
164.5252644462092
 30
0.0
 40
3.937007874015747
100
AcDbArc
 50
4.529676129561186
 51
85.47417305342889
  0
ARC
  5
248
330
21
100
AcDbEntity
  8
截面层
 62
     1
 48
0.2
370
    35
100
AcDbCircle
 10
140.4339649375434
 20
164.5252644462092
 30
0.0
 40
3.937007874015747
100
AcDbArc
 50
94.52582694667567
 51
145.5509695917221
  0
LINE
  5
249
330
21
100
AcDbEntity
  8
0
100
AcDbLine
 10
125.5713726589779
 20
148.8694282658161
 30
0.0
 11
148.0989317140957
 21
148.8694282657995
 31
0.0
  0
ARC
  5
24A
330
21
100
AcDbEntity
  8
0
100
AcDbCircle
 10
125.5713726589813
 20
153.4127353524303
 30
0.0
 40
4.543307086614173
100
AcDbArc
 50
180.0
 51
270.0
  0
ARC
  5
24B
330
21
100
AcDbEntity
  8
0
100
AcDbCircle
 10
148.0989317140993
 20
153.8064361398152
 30
0.0
 40
4.937007874015748
100
AcDbArc
 50
270.0
 51
0.0
  0
LINE
  5
24C
330
21
100
AcDbEntity
  8
0
100
AcDbLine
 10
125.5713726589813
 20
167.4048613366801
 30
0.0
 11
134.4693930475643
 21
167.4048613366801
 31
0.0
  0
LINE
  5
24D
330
21
100
AcDbEntity
  8
0
100
AcDbLine
 10
148.0989317140993
 20
169.6095857461173
 30
0.0
 11
140.3233411629184
 21
169.6095857461173
 31
0.0
  0
ARC
  5
24E
330
21
100
AcDbEntity
  8
0
100
AcDbCircle
 10
148.0989317140993
 20
164.6725778721015
 30
0.0
 40
4.937007874015748
100
AcDbArc
 50
0.0
 51
90.0
  0
LINE
  5
24F
330
21
100
AcDbEntity
  8
0
100
AcDbLine
 10
121.0280655723672
 20
153.4127353524303
 30
0.0
 11
121.0280655723672
 21
162.861554250066
 31
0.0
  0
ARC
  5
250
330
21
100
AcDbEntity
  8
0
100
AcDbCircle
 10
125.5713726589813
 20
162.861554250066
 30
0.0
 40
4.543307086614173
100
AcDbArc
 50
90.0
 51
180.0
  0
LINE
  5
251
330
21
100
AcDbEntity
  8
0
100
AcDbLine
 10
153.0359395881151
 20
153.8064361398152
 30
0.0
 11
153.0359395881151
 21
164.6725778721015
 31
0.0
  0
ARC
  5
252
330
21
100
AcDbEntity
  8
0
100
AcDbCircle
 10
140.3233411629184
 20
164.6725778721015
 30
0.0
 40
4.937007874015748
100
AcDbArc
 50
90.0
 51
131.2749345984819
  0
ARC
  5
253
330
21
100
AcDbEntity
  8
0
100
AcDbCircle
 10
134.4693930475643
 20
171.3418692106959
 30
0.0
 40
3.937007874015747
100
AcDbArc
 50
270.0
 51
311.2749345984819
  0
ARC
  5
254
330
21
100
AcDbEntity
  8
截面层
 62
     1
 48
0.2
370
    35
100
AcDbCircle
 10
144.1619238400837
 20
201.0505306280072
 30
0.0
 40
51.18110236220473
100
AcDbArc
 50
270.0
 51
274.5258269465712
  0
CIRCLE
  5
255
330
21
100
AcDbEntity
  8
0
100
AcDbCircle
 10
144.1619238400371
 20
163.0977747224951
 30
0.0
 40
1.771653543307085
  0
LINE
  5
256
330
21
100
AcDbEntity
  8
中心线
 48
0.1
100
AcDbLine
 10
128.5241285644932
 20
164.860675430243
 30
0.0
 11
128.5241285644932
 21
156.8121765666973
 31
0.0
  0
LINE
  5
257
330
21
100
AcDbEntity
  8
中心线
 48
0.1
100
AcDbLine
 10
123.9965911938802
 20
160.8930503130581
 30
0.0
 11
133.0497749332725
 21
160.8930503130581
 31
0.0
  0
CIRCLE
  5
258
330
21
100
AcDbEntity
  8
0
100
AcDbCircle
 10
128.5231830635762
 20
160.8930503130581
 30
0.0
 40
1.771653543307085
  0
CIRCLE
  5
259
330
21
100
AcDbEntity
  8
0
100
AcDbCircle
 10
128.5231830635762
 20
160.8930503130581
 30
0.0
 40
2.165354330708659
  0
CIRCLE
  5
25A
330
21
100
AcDbEntity
  8
0
100
AcDbCircle
 10
128.5231830635762
 20
160.8930503130581
 30
0.0
 40
2.283464566929133
  0
CIRCLE
  5
25B
330
21
100
AcDbEntity
  8
0
100
AcDbCircle
 10
144.1609783391201
 20
163.0977747224951
 30
0.0
 40
2.165354330708659
  0
CIRCLE
  5
25C
330
21
100
AcDbEntity
  8
0
100
AcDbCircle
 10
144.1609783391201
 20
163.0977747224951
 30
0.0
 40
2.283464566929133
  0
LINE
  5
25D
330
21
100
AcDbEntity
  8
中心线
 48
0.1
100
AcDbLine
 10
144.1619238400371
 20
167.0653998396802
 30
0.0
 11
144.1619238400371
 21
159.0169009761345
 31
0.0
  0
LINE
  5
25E
330
21
100
AcDbEntity
  8
中心线
 48
0.1
100
AcDbLine
 10
139.6343864694241
 20
163.0977747224951
 30
0.0
 11
148.6875702088164
 21
163.0977747224951
 31
0.0
  0
LINE
  5
25F
330
21
100
AcDbEntity
  8
中心线
 48
0.1
100
AcDbLine
 10
139.3850271877449
 20
204.0010611377215
 30
0.0
 11
148.438210927137
 21
204.0010611377215
 31
0.0
  0
LINE
  5
260
330
21
100
AcDbEntity
  8
中心线
 48
0.1
100
AcDbLine
 10
143.9125645583579
 20
207.9686862549064
 30
0.0
 11
143.9125645583579
 21
199.9201873913607
 31
0.0
  0
CIRCLE
  5
261
330
21
100
AcDbEntity
  8
0
100
AcDbCircle
 10
143.9116190574408
 20
204.0010611377215
 30
0.0
 40
2.283464566929133
  0
CIRCLE
  5
262
330
21
100
AcDbEntity
  8
0
100
AcDbCircle
 10
143.9116190574408
 20
204.0010611377215
 30
0.0
 40
2.165354330708659
  0
CIRCLE
  5
263
330
21
100
AcDbEntity
  8
0
100
AcDbCircle
 10
128.273823781897
 20
201.7963367282843
 30
0.0
 40
2.283464566929133
  0
CIRCLE
  5
264
330
21
100
AcDbEntity
  8
0
100
AcDbCircle
 10
128.273823781897
 20
201.7963367282843
 30
0.0
 40
2.165354330708659
  0
CIRCLE
  5
265
330
21
100
AcDbEntity
  8
0
100
AcDbCircle
 10
128.273823781897
 20
201.7963367282843
 30
0.0
 40
1.771653543307085
  0
LINE
  5
266
330
21
100
AcDbEntity
  8
中心线
 48
0.1
100
AcDbLine
 10
123.7472319122009
 20
201.7963367282843
 30
0.0
 11
132.8004156515932
 21
201.7963367282843
 31
0.0
  0
LINE
  5
267
330
21
100
AcDbEntity
  8
中心线
 48
0.1
100
AcDbLine
 10
128.2747692828139
 20
205.7639618454693
 30
0.0
 11
128.2747692828139
 21
197.7154629819235
 31
0.0
  0
MTEXT
  5
268
330
21
100
AcDbEntity
  8
标注
 48
5.0
100
AcDbMText
 10
127.658867625469
 20
50.382554206885
 30
0.0
 40
0.7874015748031497
 41
15.1555422233215
 71
     1
 72
     5
  1
1/4" {\fArial|b0|i0|c0|p32;OVERHANG CUTOUT}
 73
     1
 44
1.0
  0
MTEXT
  5
269
330
21
100
AcDbEntity
  8
标注
 48
5.0
100
AcDbMText
 10
131.2008989974812
 20
80.08219346040618
 30
0.0
 40
0.7874015748031497
 41
15.1555422233215
 71
     1
 72
     5
  1
{\fArial|b0|i0|c0|p32;FLUSH CUTOUT}
 73
     1
 44
1.0
  0
MTEXT
  5
26A
330
21
100
AcDbEntity
  8
标注
 48
5.0
100
AcDbMText
 10
129.8482519863938
 20
109.6371411595318
 30
0.0
 40
0.7874015748031497
 41
15.1555422233215
 71
     1
 72
     5
  1
1/4" {\fArial|b0|i0|c0|p32;REVEAL CUTOUT}
 73
     1
 44
1.0
  0
MTEXT
  5
26B
330
21
100
AcDbEntity
  8
标注
 48
5.0
100
AcDbMText
 10
134.6575382754627
 20
141.0170424418815
 30
0.0
 40
0.7874015748031497
 41
15.1555422233215
 71
     1
 72
     5
  1
1/4" {\fArial|b0|i0|c0|p32;OVERHANG CUTOUT}
 73
     1
 44
1.0
  0
MTEXT
  5
26C
330
21
100
AcDbEntity
  8
标注
 48
5.0
100
AcDbMText
 10
134.6575382754623
 20
142.9855463788894
 30
0.0
 40
0.7874015748031497
 41
15.1555422233215
 71
     1
 72
     5
  1
{\fArial|b0|i0|c0|p32;FLUSH CUTOUT}
 73
     1
 44
1.0
  0
MTEXT
  5
26D
330
21
100
AcDbEntity
  8
标注
 48
5.0
100
AcDbMText
 10
134.6575382754627
 20
144.9540503158973
 30
0.0
 40
0.7874015748031497
 41
15.1555422233215
 71
     1
 72
     5
  1
1/4" {\fArial|b0|i0|c0|p32;REVEAL CUTOUT}
 73
     1
 44
1.0
  0
LINE
  5
26E
330
21
100
AcDbEntity
  8
虚线
 62
    11
 48
0.15
370
    35
100
AcDbLine
 10
126.9921321948957
 20
140.4688775042707
 30
0.0
 11
133.2089371989797
 21
140.4688775042707
 31
0.0
  0
LINE
  5
26F
330
21
100
AcDbEntity
  8
截面层
 62
     1
 48
0.2
370
    35
100
AcDbLine
 10
126.9921321948957
 20
142.4373814412786
 30
0.0
 11
133.2089371989797
 21
142.4373814412786
 31
0.0
  0
LINE
  5
270
330
21
100
AcDbEntity
  8
虚线
 62
     3
 48
0.3
370
    35
100
AcDbLine
 10
126.9921321948957
 20
144.4058853782865
 30
0.0
 11
133.2089371989797
 21
144.4058853782865
 31
0.0
  0
MTEXT
  5
271
330
21
100
AcDbEntity
  8
标注
 48
5.0
100
AcDbMText
 10
132.0920891452491
 20
216.0878276870517
 30
0.0
 40
0.7874015748031497
 41
15.1555422233215
 71
     1
 72
     5
  1
{\fArial|b0|i0|c0|p32;FRONT VIEW }
 73
     1
 44
1.0
  0
MTEXT
  5
272
330
21
100
AcDbEntity
  8
标注
 48
5.0
100
AcDbMText
 10
131.8576309980209
 20
182.0105508529116
 30
0.0
 40
0.7874015748031497
 41
15.1555422233215
 71
     1
 72
     5
  1
{\fArial|b0|i0|c0|p32;OVERHEAD VIEW}
 73
     1
 44
1.0
  0
LINE
  5
27D
330
21
100
AcDbEntity
  8
0
100
AcDbLine
 10
141.5979814186552
 20
220.1817819961139
 30
0.0
 11
146.046800316293
 21
220.1817819961139
 31
0.0
  0
LINE
  5
27E
102
{ACAD_REACTORS
330
3F8
102
}
330
21
100
AcDbEntity
  8
截面层
100
AcDbLine
 10
145.940785068496
 20
219.984931602413
 30
0.0
 11
146.046800316293
 21
220.1817819961139
 31
0.0
  0
LINE
  5
27F
330
21
100
AcDbEntity
  8
截面层
100
AcDbLine
 10
141.7509363272644
 20
219.984931602413
 30
0.0
 11
142.0522436691908
 21
219.984931602413
 31
0.0
  0
LINE
  5
280
330
21
100
AcDbEntity
  8
截面层
100
AcDbLine
 10
141.5979814186552
 20
220.1817819961139
 30
0.0
 11
141.7509363272644
 21
219.984931602413
 31
0.0
  0
LINE
  5
281
330
21
100
AcDbEntity
  8
截面层
100
AcDbLine
 10
145.5925380657581
 20
219.984931602413
 30
0.0
 11
145.940785068496
 21
219.984931602413
 31
0.0
  0
LINE
  5
282
330
21
100
AcDbEntity
  8
0
100
AcDbLine
 10
142.0522436691908
 20
219.984931602413
 30
0.0
 11
145.5925380657581
 21
219.984931602413
 31
0.0
  0
LINE
  5
283
330
21
100
AcDbEntity
  8
中心线
 48
0.1
100
AcDbLine
 10
143.8223908674747
 20
222.6343732310685
 30
0.0
 11
143.8223908674743
 21
218.9388065957027
 31
0.0
  0
LINE
  5
284
330
21
100
AcDbEntity
  8
0
100
AcDbLine
 10
126.046800316293
 20
222.229026090602
 30
0.0
 11
130.4956192139309
 21
222.229026090602
 31
0.0
  0
LINE
  5
285
330
21
100
AcDbEntity
  8
截面层
100
AcDbLine
 10
130.3896039661338
 20
222.0321756969013
 30
0.0
 11
130.4956192139309
 21
222.229026090602
 31
0.0
  0
LINE
  5
286
330
21
100
AcDbEntity
  8
截面层
100
AcDbLine
 10
126.1997552249023
 20
222.0321756969013
 30
0.0
 11
126.5010625668287
 21
222.0321756969013
 31
0.0
  0
LINE
  5
287
330
21
100
AcDbEntity
  8
截面层
100
AcDbLine
 10
126.046800316293
 20
222.229026090602
 30
0.0
 11
126.1997552249023
 21
222.0321756969013
 31
0.0
  0
LINE
  5
288
330
21
100
AcDbEntity
  8
截面层
100
AcDbLine
 10
130.041356963396
 20
222.0321756969013
 30
0.0
 11
130.3896039661338
 21
222.0321756969013
 31
0.0
  0
LINE
  5
289
330
21
100
AcDbEntity
  8
0
100
AcDbLine
 10
126.5010625668287
 20
222.0321756969013
 30
0.0
 11
130.041356963396
 21
222.0321756969013
 31
0.0
  0
LINE
  5
28A
330
21
100
AcDbEntity
  8
中心线
 48
0.1
100
AcDbLine
 10
128.2712097651126
 20
224.6816173255567
 30
0.0
 11
128.2712097651122
 21
220.986050690191
 31
0.0
  0
DIMENSION
  5
28B
102
{ACAD_XDICTIONARY
360
28C
102
}
102
{ACAD_REACTORS
330
28D
102
}
330
21
100
AcDbEntity
  8
标注
100
AcDbDimension
  2
*D22
 10
118.0465886745974
 20
189.7727146810424
 30
0.0
 11
118.0465886745974
 21
187.9477146810424
 31
0.0
 70
    32
 71
     5
 42
0.9999999999977832
  3
副本Standard
100
AcDbAlignedDimension
 13
127.3947692828139
 23
190.77271468104
 33
0.0
 14
125.3220133772987
 24
189.7727146810424
 34
0.0
 50
90.0
100
AcDbRotatedDimension
  0
DIMENSION
  5
28E
330
21
100
AcDbEntity
  8
标注
100
AcDbDimension
  2
*D17
 10
155.2486348027764
 20
210.5128721613435
 30
0.0
 11
155.2486348027764
 21
212.3378721613436
 31
0.0
 70
    32
 71
     5
 42
0.9999999999999715
  3
副本Standard
100
AcDbAlignedDimension
 13
144.7925645583578
 23
209.5128721613436
 33
0.0
 14
147.8495724324201
 24
210.5128721613435
 34
0.0
 50
90.0
100
AcDbRotatedDimension
  0
DIMENSION
  5
28F
102
{ACAD_XDICTIONARY
360
290
102
}
102
{ACAD_REACTORS
330
291
102
}
330
21
100
AcDbEntity
  8
标注
100
AcDbDimension
  2
*D23
 10
136.038548810373
 20
199.2627934211861
 30
0.0
 11
139.0552154770397
 21
199.2627934211861
 31
0.0
 70
    32
 71
     5
 42
1.267716535433065
  3
副本Standard
100
AcDbAlignedDimension
 13
134.77083227494
 23
199.0404312164742
 33
0.0
 14
136.038548810373
 24
199.0404312164742
 34
0.0
100
AcDbRotatedDimension
  0
DIMENSION
  5
292
330
21
100
AcDbEntity
  8
标注
100
AcDbDimension
  2
*D18
 10
152.7865803064359
 20
187.4185893225396
 30
0.0
 11
154.6115803064359
 21
187.4185893225396
 31
0.0
 70
    32
 71
     5
 42
0.9999999999998864
  3
副本Standard
100
AcDbAlignedDimension
 13
151.786580306436
 23
200.1427934211862
 33
0.0
 14
152.7865803064359
 24
194.7097225550414
 34
0.0
100
AcDbRotatedDimension
  0
DIMENSION
  5
293
102
{ACAD_XDICTIONARY
360
294
102
}
102
{ACAD_REACTORS
330
295
102
}
330
21
100
AcDbEntity
  8
标注
100
AcDbDimension
  2
*D24
 10
125.5437223176513
 20
194.4497563893898
 30
0.0
 11
125.4721847919087
 21
194.3898515079274
 31
0.0
 70
   164
 71
     5
 42
3.543307086614162
  3
副本Standard
100
AcDbRadialDimension
 15
122.8271074160303
 25
192.1748874730915
 35
0.0
 40
0.0
  0
DIMENSION
  5
296
102
{ACAD_XDICTIONARY
360
297
102
}
102
{ACAD_REACTORS
330
298
102
}
330
21
100
AcDbEntity
  8
标注
100
AcDbDimension
  2
*D25
 10
140.1846056558642
 20
194.8570359809368
 30
0.0
 11
139.894580973735
 21
194.6135609483011
 31
0.0
 70
   164
 71
     5
 42
3.93700787401579
  3
副本Standard
100
AcDbRadialDimension
 15
137.1692736635321
 25
192.3256719265026
 35
0.0
 40
0.0
  0
DIMENSION
  5
299
102
{ACAD_XDICTIONARY
360
29A
102
}
102
{ACAD_REACTORS
330
29B
102
}
330
21
100
AcDbEntity
  8
标注
100
AcDbDimension
  2
*D26
 10
120.778706290688
 20
185.1711816833886
 30
0.0
 11
136.7826432985619
 21
185.1711816833886
 31
0.0
 70
   160
 71
     5
 42
32.00787401574793
  3
副本Standard
100
AcDbAlignedDimension
 13
152.7865803064359
 23
194.7097225550414
 33
0.0
 14
120.778706290688
 24
194.3160217676565
 34
0.0
 50
180.0
100
AcDbRotatedDimension
  0
DIMENSION
  5
29C
102
{ACAD_XDICTIONARY
360
29D
102
}
102
{ACAD_REACTORS
330
29E
102
}
330
21
100
AcDbEntity
  8
标注
100
AcDbDimension
  2
*D27
 10
121.778706290688
 20
187.4145799508248
 30
0.0
 11
128.2747692828139
 21
187.4145799508248
 31
0.0
 70
    32
 71
     5
 42
12.99212598425197
  3
副本Standard
100
AcDbAlignedDimension
 13
134.7708322749399
 23
199.0404312164742
 33
0.0
 14
121.778706290688
 24
199.0404312164732
 34
0.0
 50
180.0
100
AcDbRotatedDimension
  0
DIMENSION
  5
29F
102
{ACAD_XDICTIONARY
360
2A0
102
}
102
{ACAD_REACTORS
330
2A1
102
}
330
21
100
AcDbEntity
  8
标注
100
AcDbDimension
  2
*D28
 10
136.038548810373
 20
187.4185893225396
 30
0.0
 11
143.9125645584045
 21
187.4185893225396
 31
0.0
 70
    32
 71
     5
 42
15.74803149606293
  3
副本Standard
100
AcDbAlignedDimension
 13
151.786580306436
 23
200.1427934211862
 33
0.0
 14
136.038548810373
 24
200.1427934211862
 34
0.0
 50
180.0
100
AcDbRotatedDimension
  0
DIMENSION
  5
2A2
102
{ACAD_XDICTIONARY
360
2A3
102
}
102
{ACAD_REACTORS
330
2A4
102
}
330
21
100
AcDbEntity
  8
标注
100
AcDbDimension
  2
*D29
 10
115.705427759201
 20
189.7727146810424
 30
0.0
 11
115.705427759201
 21
199.0404312164744
 31
0.0
 70
   160
 71
     5
 42
18.53543307086397
  3
副本Standard
100
AcDbAlignedDimension
 13
125.3220133773021
 23
208.3081477519064
 33
0.0
 14
125.3220133773021
 24
189.7727146810424
 34
0.0
 50
90.0
100
AcDbRotatedDimension
  0
DIMENSION
  5
2A5
102
{ACAD_XDICTIONARY
360
2A6
102
}
102
{ACAD_REACTORS
330
2A7
102
}
330
21
100
AcDbEntity
  8
标注
100
AcDbDimension
  2
*D30
 10
118.0465886745974
 20
190.77271468104
 30
0.0
 11
118.0465886745974
 21
199.0404312164732
 31
0.0
 70
   160
 71
     5
 42
16.53543307086613
  3
副本Standard
100
AcDbAlignedDimension
 13
128.2747692828139
 23
207.3081477519063
 33
0.0
 14
128.2747692828139
 24
190.77271468104
 34
0.0
 50
90.0
100
AcDbRotatedDimension
  0
DIMENSION
  5
2A8
330
21
100
AcDbEntity
  8
标注
100
AcDbDimension
  2
*D19
 10
157.6865956389688
 20
189.7727146810258
 30
0.0
 11
157.6865956389688
 21
200.1427934211847
 31
0.0
 70
   160
 71
     5
 42
20.74015748031775
  3
副本Standard
100
AcDbAlignedDimension
 13
147.8495724324201
 23
210.5128721613435
 33
0.0
 14
147.8495724324201
 24
189.7727146810258
 34
0.0
 50
90.0
100
AcDbRotatedDimension
  0
DIMENSION
  5
2A9
102
{ACAD_XDICTIONARY
360
2AA
102
}
102
{ACAD_REACTORS
330
2AB
102
}
330
21
100
AcDbEntity
  8
标注
100
AcDbDimension
  2
*D31
 10
155.2486348027764
 20
190.7727146810286
 30
0.0
 11
155.2486348027764
 21
200.1427934211862
 31
0.0
 70
   160
 71
     5
 42
18.7401574803149
  3
副本Standard
100
AcDbAlignedDimension
 13
143.9125645583578
 23
209.5128721613436
 33
0.0
 14
143.9125645583307
 24
190.7727146810286
 34
0.0
 50
90.0
100
AcDbRotatedDimension
  0
DIMENSION
  5
2AC
102
{ACAD_XDICTIONARY
360
2AD
102
}
102
{ACAD_REACTORS
330
2AE
102
}
330
21
100
AcDbEntity
  8
标注
100
AcDbDimension
  2
*D32
 10
118.0868041979879
 20
222.2290260906021
 30
0.0
 11
118.0868041979878
 21
226.213278059106
 31
0.0
 70
    32
 71
     5
 42
7.968503937007795
  3
副本Standard
100
AcDbAlignedDimension
 13
120.778706290688
 23
230.1975300276099
 33
0.0
 14
126.0468003162917
 24
222.2290260906021
 34
0.0
 50
90.0
100
AcDbRotatedDimension
  0
LINE
  5
2AF
330
21
100
AcDbEntity
  8
0
100
AcDbLine
 10
134.9641231509387
 20
230.1975300276099
 30
0.0
 11
121.5782963792851
 21
230.1975300276099
 31
0.0
  0
LINE
  5
2B0
330
21
100
AcDbEntity
  8
0
100
AcDbLine
 10
151.8932570092064
 20
230.1975300276099
 30
0.0
 11
135.7515247257419
 21
230.1975300276099
 31
0.0
  0
ARC
  5
2B1
330
21
100
AcDbEntity
  8
截面层
100
AcDbCircle
 10
121.5782963792851
 20
230.0006796339092
 30
0.0
 40
0.1968503937007874
100
AcDbArc
 50
0.0
 51
90.0
  0
LINE
  5
2B2
102
{ACAD_REACTORS
330
2AE
102
}
330
21
100
AcDbEntity
  8
截面层
100
AcDbLine
 10
121.5782963792851
 20
230.1975300276099
 30
0.0
 11
120.778706290688
 21
230.1975300276099
 31
0.0
  0
ARC
  5
2B3
330
21
100
AcDbEntity
  8
截面层
100
AcDbCircle
 10
134.9641231509387
 20
230.0006796339092
 30
0.0
 40
0.1968503937007874
100
AcDbArc
 50
90.0
 51
180.0
  0
ARC
  5
2B4
330
21
100
AcDbEntity
  8
截面层
100
AcDbCircle
 10
135.7515247257419
 20
230.0006796339092
 30
0.0
 40
0.1968503937007874
100
AcDbArc
 50
0.0
 51
90.0
  0
ARC
  5
2B5
330
21
100
AcDbEntity
  8
截面层
100
AcDbCircle
 10
151.8932570092064
 20
230.0006796339092
 30
0.0
 40
0.1968503937007874
100
AcDbArc
 50
90.0
 51
180.0
  0
LINE
  5
2B6
330
21
100
AcDbEntity
  8
截面层
100
AcDbLine
 10
135.7515247257419
 20
230.1975300276099
 30
0.0
 11
134.9641231509387
 21
230.1975300276099
 31
0.0
  0
LINE
  5
2B7
102
{ACAD_REACTORS
330
3F8
102
}
330
21
100
AcDbEntity
  8
截面层
100
AcDbLine
 10
152.7865803064359
 20
230.1975300276099
 30
0.0
 11
151.8932570092064
 21
230.1975300276099
 31
0.0
  0
ARC
  5
2B8
330
21
100
AcDbEntity
  8
截面层
100
AcDbCircle
 10
130.9768923352016
 20
307.2939975505009
 30
0.0
 40
85.20771782408159
100
AcDbArc
 50
265.2409076048692
 51
266.6830315546355
  0
ARC
  5
2B9
330
21
100
AcDbEntity
  8
截面层
100
AcDbCircle
 10
144.9276257783822
 20
292.3953481119474
 30
0.0
 40
72.2902874716107
100
AcDbArc
 50
264.6275905939324
 51
267.360059091941
  0
ARC
  5
2BA
330
21
100
AcDbEntity
  8
截面层
100
AcDbCircle
 10
125.5655271950211
 20
307.2939975505167
 30
0.0
 40
85.20771782409743
100
AcDbArc
 50
273.3169684453645
 51
274.7590923951309
  0
ARC
  5
2BB
330
21
100
AcDbEntity
  8
截面层
100
AcDbCircle
 10
142.7171559565632
 20
292.3953481119932
 30
0.0
 40
72.29028747165672
100
AcDbArc
 50
272.6399409080623
 51
275.3724094060664
  0
LINE
  5
2BC
330
21
100
AcDbEntity
  8
截面层
100
AcDbLine
 10
134.7672727572379
 20
230.0006796339092
 30
0.0
 11
134.4662156591643
 21
224.2682588238012
 31
0.0
  0
LINE
  5
2BD
330
21
100
AcDbEntity
  8
截面层
100
AcDbLine
 10
151.6964066155057
 20
230.0006796339092
 30
0.0
 11
151.2956480216366
 21
222.3097593221695
 31
0.0
  0
LINE
  5
2BE
330
21
100
AcDbEntity
  8
截面层
100
AcDbLine
 10
135.9483751194426
 20
230.0006796339092
 30
0.0
 11
136.3491337133115
 21
222.3097593221697
 31
0.0
  0
LINE
  5
2BF
330
21
100
AcDbEntity
  8
截面层
100
AcDbLine
 10
121.7751467729859
 20
230.0006796339092
 30
0.0
 11
122.0762038710597
 21
224.2682588238011
 31
0.0
  0
CIRCLE
  5
2C0
330
21
100
AcDbEntity
  8
0
100
AcDbCircle
 10
143.9125645583579
 20
204.0010611377215
 30
0.0
 40
1.771653543307085
  0
ARC
  5
2C1
102
{ACAD_REACTORS
330
2AB
102
}
330
21
100
AcDbEntity
  8
0
100
AcDbCircle
 10
143.9125645584045
 20
241.9538170432335
 30
0.0
 40
51.18110236220473
100
AcDbArc
 50
265.4741730533243
 51
274.5258269465712
  0
ARC
  5
2C2
330
21
100
AcDbEntity
  8
0
100
AcDbCircle
 10
134.2200337658851
 20
212.2451556259221
 30
0.0
 40
3.937007874015747
100
AcDbArc
 50
270.0
 51
311.2749345984819
  0
ARC
  5
2C3
330
21
100
AcDbEntity
  8
0
100
AcDbCircle
 10
140.0739818812392
 20
205.5758642873278
 30
0.0
 40
4.937007874015748
100
AcDbArc
 50
90.0
 51
131.2749345984819
  0
LINE
  5
2C4
102
{ACAD_REACTORS
330
29B
102
}
330
21
100
AcDbEntity
  8
0
100
AcDbLine
 10
152.7865803064359
 20
194.7097225550414
 30
0.0
 11
152.7865803064359
 21
205.5758642873278
 31
0.0
  0
ARC
  5
2C5
102
{ACAD_REACTORS
330
2A4
102
}
330
21
100
AcDbEntity
  8
0
100
AcDbCircle
 10
125.3220133773021
 20
203.7648406652922
 30
0.0
 40
4.543307086614173
100
AcDbArc
 50
90.0
 51
180.0
  0
LINE
  5
2C6
102
{ACAD_REACTORS
330
29B
102
}
330
21
100
AcDbEntity
  8
0
100
AcDbLine
 10
120.778706290688
 20
194.3160217676565
 30
0.0
 11
120.778706290688
 21
203.7648406652922
 31
0.0
  0
ARC
  5
2C7
330
21
100
AcDbEntity
  8
0
100
AcDbCircle
 10
147.8495724324201
 20
205.5758642873278
 30
0.0
 40
4.937007874015748
100
AcDbArc
 50
0.0
 51
90.0
  0
LINE
  5
2C8
330
21
100
AcDbEntity
  8
0
100
AcDbLine
 10
147.8495724324201
 20
210.5128721613435
 30
0.0
 11
140.0739818812392
 21
210.5128721613435
 31
0.0
  0
LINE
  5
2C9
102
{ACAD_REACTORS
330
2A4
102
}
330
21
100
AcDbEntity
  8
0
100
AcDbLine
 10
125.3220133773021
 20
208.3081477519064
 30
0.0
 11
134.2200337658851
 21
208.3081477519064
 31
0.0
  0
ARC
  5
2CA
330
21
100
AcDbEntity
  8
0
100
AcDbCircle
 10
147.8495724324201
 20
194.7097225550414
 30
0.0
 40
4.937007874015748
100
AcDbArc
 50
270.0
 51
0.0
  0
ARC
  5
2CB
102
{ACAD_REACTORS
330
29B
102
}
330
21
100
AcDbEntity
  8
0
100
AcDbCircle
 10
125.3220133773021
 20
194.3160217676565
 30
0.0
 40
4.543307086614173
100
AcDbArc
 50
180.0
 51
270.0
  0
LINE
  5
2CC
102
{ACAD_REACTORS
330
28D
102
}
330
21
100
AcDbEntity
  8
0
100
AcDbLine
 10
125.3220133772987
 20
189.7727146810424
 30
0.0
 11
147.8495724324165
 21
189.7727146810258
 31
0.0
  0
ARC
  5
2CD
330
21
100
AcDbEntity
  8
0
100
AcDbCircle
 10
140.1846056558641
 20
205.4285508614355
 30
0.0
 40
3.937007874015747
100
AcDbArc
 50
94.52582694667567
 51
175.4703238704388
  0
ARC
  5
2CE
330
21
100
AcDbEntity
  8
0
100
AcDbCircle
 10
147.6405234609448
 20
205.4285508614355
 30
0.0
 40
3.937007874015747
100
AcDbArc
 50
4.529676129561186
 51
85.47417305342889
  0
ARC
  5
2CF
102
{ACAD_REACTORS
330
2AB
102
}
330
21
100
AcDbEntity
  8
0
100
AcDbCircle
 10
143.9125645584045
 20
158.3317697991389
 30
0.0
 40
51.18110236220473
100
AcDbArc
 50
85.47417305342889
 51
94.52582694667567
  0
ARC
  5
2D0
330
21
100
AcDbEntity
  8
0
100
AcDbCircle
 10
147.6405234609448
 20
194.8570359809368
 30
0.0
 40
3.937007874015747
100
AcDbArc
 50
274.5258269466757
 51
355.4703238704389
  0
ARC
  5
2D1
102
{ACAD_REACTORS
330
2A1
102
}
330
21
100
AcDbEntity
  8
0
100
AcDbCircle
 10
80.92043857415252
 20
200.1427934211862
 30
0.0
 40
70.86614173228347
100
AcDbArc
 50
355.4703238704389
 51
4.529676129561186
  0
ARC
  5
2D2
102
{ACAD_REACTORS
330
298
102
}
330
21
100
AcDbEntity
  8
0
100
AcDbCircle
 10
140.1846056558641
 20
194.8570359809368
 30
0.0
 40
3.937007874015747
100
AcDbArc
 50
184.5296761295612
 51
265.4741730534289
  0
ARC
  5
2D3
102
{ACAD_REACTORS
330
2A1
102
}
330
21
100
AcDbEntity
  8
0
100
AcDbCircle
 10
206.9046905426564
 20
200.1427934211862
 30
0.0
 40
70.86614173228347
100
AcDbArc
 50
175.4703238704388
 51
184.5296761295612
  0
ARC
  5
2D4
330
21
100
AcDbEntity
  8
0
100
AcDbCircle
 10
131.0058162479765
 20
194.4497563893899
 30
0.0
 40
3.543307086614173
100
AcDbArc
 50
275.6068707265022
 51
354.4700400460036
  0
ARC
  5
2D5
102
{ACAD_REACTORS
330
291
102
}
330
21
100
AcDbEntity
  8
0
100
AcDbCircle
 10
83.58972991273526
 20
199.0404312164742
 30
0.0
 40
51.18110236220473
100
AcDbArc
 50
354.4700400459906
 51
5.529959953996367
  0
ARC
  5
2D6
330
21
100
AcDbEntity
  8
0
100
AcDbCircle
 10
125.5437223176514
 20
203.6311060435568
 30
0.0
 40
3.543307086614173
100
AcDbArc
 50
95.60687072650223
 51
174.4700400460036
  0
ARC
  5
2D7
330
21
100
AcDbEntity
  8
0
100
AcDbCircle
 10
131.0058162479766
 20
203.6311060435568
 30
0.0
 40
3.543307086614173
100
AcDbArc
 50
5.529959953996367
 51
84.39312927349776
  0
ARC
  5
2D8
102
{ACAD_REACTORS
330
2A7
102
}
330
21
100
AcDbEntity
  8
0
100
AcDbCircle
 10
128.2747692828139
 20
175.8120847597803
 30
0.0
 40
31.49606299212599
100
AcDbArc
 50
84.39312927349776
 51
95.60687072650223
  0
ARC
  5
2D9
102
{ACAD_REACTORS
330
295
102
}
330
21
100
AcDbEntity
  8
0
100
AcDbCircle
 10
125.5437223176514
 20
194.4497563893899
 30
0.0
 40
3.543307086614173
100
AcDbArc
 50
185.5299599539963
 51
264.3931292734978
  0
ARC
  5
2DA
102
{ACAD_REACTORS
330
2A7
102
}
330
21
100
AcDbEntity
  8
0
100
AcDbCircle
 10
128.2747692828139
 20
222.2687776731662
 30
0.0
 40
31.49606299212599
100
AcDbArc
 50
264.3931292734978
 51
275.6068707265022
  0
ARC
  5
2DB
102
{ACAD_REACTORS
330
29E
102
}
330
21
100
AcDbEntity
  8
0
100
AcDbCircle
 10
172.9598086528928
 20
199.0404312164732
 30
0.0
 40
51.18110236220473
100
AcDbArc
 50
174.4700400460036
 51
185.5299599539963
  0
DIMENSION
  5
3E1
102
{ACAD_XDICTIONARY
360
3EE
102
}
102
{ACAD_REACTORS
330
3F8
102
}
330
21
100
AcDbEntity
  8
标注
100
AcDbDimension
  2
*D33
 10
155.2633674896647
 20
230.1975300276099
 30
0.0
 11
155.2633674896646
 21
225.1896560118619
 31
0.0
 70
    32
 71
     5
 42
10.015748031496
  3
副本Standard
100
AcDbAlignedDimension
 13
146.046800316293
 23
220.1817819961139
 33
0.0
 14
152.7865803064359
 24
230.1975300276099
 34
0.0
 50
90.0
100
AcDbRotatedDimension
  0
ARC
  5
429
330
21
100
AcDbEntity
  8
截面层
100
AcDbCircle
 10
124.0734513899103
 20
224.3731509037929
 30
0.0
 40
2.0
100
AcDbArc
 50
183.0063160085387
 51
265.2409076048701
  0
ARC
  5
42A
102
{ACAD_REACTORS
330
47C
102
}
330
21
100
AcDbEntity
  8
截面层
100
AcDbCircle
 10
132.4689681403137
 20
224.3731509037929
 30
0.0
 40
2.0
100
AcDbArc
 50
274.7590923951307
 51
356.9936839914628
  0
ARC
  5
42B
330
21
100
AcDbEntity
  8
截面层
100
AcDbCircle
 10
138.3464239849808
 20
222.4138341543585
 30
0.0
 40
2.0
100
AcDbArc
 50
182.9828715692938
 51
264.6275905939332
  0
ARC
  5
42C
102
{ACAD_REACTORS
330
453
102
}
330
21
100
AcDbEntity
  8
截面层
100
AcDbCircle
 10
149.2983577499673
 20
222.4138341543584
 30
0.0
 40
2.0
100
AcDbArc
 50
275.3724094060661
 51
357.0171284307053
  0
DIMENSION
  5
444
102
{ACAD_XDICTIONARY
360
44D
102
}
102
{ACAD_REACTORS
330
453
102
}
330
21
100
AcDbEntity
  8
标注
100
AcDbDimension
  2
*D35
 10
149.2983577499673
 20
222.4138341543584
 30
0.0
 11
149.0803085192579
 21
222.5523644546473
 31
0.0
 70
   164
 71
     5
 42
2.000000000000028
  3
副本Standard
100
AcDbRadialDimension
 15
150.9864808264273
 25
221.3413415069601
 35
0.0
 40
0.0
  0
DIMENSION
  5
46D
102
{ACAD_XDICTIONARY
360
476
102
}
102
{ACAD_REACTORS
330
47C
102
}
330
21
100
AcDbEntity
  8
标注
100
AcDbDimension
  2
*D37
 10
132.4689681403137
 20
224.373150903793
 30
0.0
 11
132.2640952845517
 21
224.5305142543007
 31
0.0
 70
   164
 71
     5
 42
2.000000000000042
  3
副本Standard
100
AcDbRadialDimension
 15
134.0550805720196
 25
223.1548539966361
 35
0.0
 40
0.0
1001
ACAD
1000
DSTYLE
1002
{
1070
   288
1070
     1
1002
}
  0
ENDSEC
  0
SECTION
  2
OBJECTS
  0
DICTIONARY
  5
C
330
0
100
AcDbDictionary
281
     1
  3
ACAD_COLOR
350
1C
  3
ACAD_GROUP
350
D
  3
ACAD_LAYOUT
350
1A
  3
ACAD_MATERIAL
350
1B
  3
ACAD_MLINESTYLE
350
17
  3
ACAD_PLOTSETTINGS
350
19
  3
ACAD_PLOTSTYLENAME
350
E
  0
DICTIONARY
  5
F7
330
2
100
AcDbDictionary
280
     1
281
     1
  3
ACAD_LAYERSTATES
360
F8
  0
DICTIONARY
  5
28C
330
28B
100
AcDbDictionary
280
     1
281
     1
  3
ACAD_DIMASSOC
360
28D
  0
DICTIONARY
  5
290
330
28F
100
AcDbDictionary
280
     1
281
     1
  3
ACAD_DIMASSOC
360
291
  0
DICTIONARY
  5
294
330
293
100
AcDbDictionary
280
     1
281
     1
  3
ACAD_DIMASSOC
360
295
  0
DICTIONARY
  5
297
330
296
100
AcDbDictionary
280
     1
281
     1
  3
ACAD_DIMASSOC
360
298
  0
DICTIONARY
  5
29A
330
299
100
AcDbDictionary
280
     1
281
     1
  3
ACAD_DIMASSOC
360
29B
  0
DICTIONARY
  5
29D
330
29C
100
AcDbDictionary
280
     1
281
     1
  3
ACAD_DIMASSOC
360
29E
  0
DICTIONARY
  5
2A0
330
29F
100
AcDbDictionary
280
     1
281
     1
  3
ACAD_DIMASSOC
360
2A1
  0
DICTIONARY
  5
2A3
330
2A2
100
AcDbDictionary
280
     1
281
     1
  3
ACAD_DIMASSOC
360
2A4
  0
DICTIONARY
  5
2A6
330
2A5
100
AcDbDictionary
280
     1
281
     1
  3
ACAD_DIMASSOC
360
2A7
  0
DICTIONARY
  5
2AA
330
2A9
100
AcDbDictionary
280
     1
281
     1
  3
ACAD_DIMASSOC
360
2AB
  0
DICTIONARY
  5
2AD
330
2AC
100
AcDbDictionary
280
     1
281
     1
  3
ACAD_DIMASSOC
360
2AE
  0
DICTIONARY
  5
3EE
330
3E1
100
AcDbDictionary
280
     1
281
     1
  3
ACAD_DIMASSOC
360
3F8
  0
DICTIONARY
  5
44D
330
444
100
AcDbDictionary
280
     1
281
     1
  3
ACAD_DIMASSOC
360
453
  0
DICTIONARY
  5
476
330
46D
100
AcDbDictionary
280
     1
281
     1
  3
ACAD_DIMASSOC
360
47C
  0
DICTIONARY
  5
1C
102
{ACAD_REACTORS
330
C
102
}
330
C
100
AcDbDictionary
281
     1
  0
DICTIONARY
  5
D
102
{ACAD_REACTORS
330
C
102
}
330
C
100
AcDbDictionary
281
     1
  0
DICTIONARY
  5
1A
102
{ACAD_REACTORS
330
C
102
}
330
C
100
AcDbDictionary
281
     1
  3
Model
350
24
  3
布局1
350
20
  3
布局2
350
28
  0
DICTIONARY
  5
1B
102
{ACAD_REACTORS
330
C
102
}
330
C
100
AcDbDictionary
281
     1
  0
DICTIONARY
  5
17
102
{ACAD_REACTORS
330
C
102
}
330
C
100
AcDbDictionary
281
     1
  3
Standard
350
18
  0
DICTIONARY
  5
19
102
{ACAD_REACTORS
330
C
102
}
330
C
100
AcDbDictionary
281
     1
  0
ACDBDICTIONARYWDFLT
  5
E
102
{ACAD_REACTORS
330
C
102
}
330
C
100
AcDbDictionary
281
     1
  3
Normal
350
F
100
AcDbDictionaryWithDefault
340
F
  0
DICTIONARY
  5
F8
102
{ACAD_REACTORS
330
F7
102
}
330
F7
100
AcDbDictionary
281
     1
  0
DIMASSOC
  5
28D
102
{ACAD_REACTORS
330
28C
102
}
330
28C
100
AcDbDimAssoc
330
28B
 90
        2
 70
     0
 71
     0
  1
AcDbOsnapPointRef
 72
    13
331
2CC
 73
     2
 91
        0
 40
0.0
 10
0.0
 20
0.0
 30
2.000000000000000E+50
 75
     0
  0
DIMASSOC
  5
291
102
{ACAD_REACTORS
330
290
102
}
330
290
100
AcDbDimAssoc
330
28F
 90
        1
 70
     0
 71
     0
  1
AcDbOsnapPointRef
 72
     5
331
2D5
 73
     2
 91
        0
 40
6.283185307179585
 10
0.0
 20
0.0
 30
0.0
 75
     0
  0
DIMASSOC
  5
295
102
{ACAD_REACTORS
330
294
102
}
330
294
100
AcDbDimAssoc
330
293
 90
        2
 70
     0
 71
     0
  1
AcDbOsnapPointRef
 72
     3
331
2D9
 73
     2
 91
        0
 40
0.0
 10
0.0
 20
0.0
 30
0.0
 75
     0
  0
DIMASSOC
  5
298
102
{ACAD_REACTORS
330
297
102
}
330
297
100
AcDbDimAssoc
330
296
 90
        2
 70
     0
 71
     0
  1
AcDbOsnapPointRef
 72
     3
331
2D2
 73
     2
 91
        0
 40
0.0
 10
0.0
 20
0.0
 30
0.0
 75
     0
  0
DIMASSOC
  5
29B
102
{ACAD_REACTORS
330
29A
102
}
330
29A
100
AcDbDimAssoc
330
299
 90
        3
 70
     0
 71
     0
  1
AcDbOsnapPointRef
 72
    13
331
2C4
 73
     2
 91
        0
 40
0.0
 10
0.0
 20
0.0
 30
2.000000000000000E+50
 75
     0
  1
AcDbOsnapPointRef
 72
    11
331
2C6
 73
     2
 91
        0
 40
0.0000000000000038
 10
0.0
 20
0.0
 30
0.0
332
2CB
 74
     2
 92
        0
 75
     0
  0
DIMASSOC
  5
29E
102
{ACAD_REACTORS
330
29D
102
}
330
29D
100
AcDbDimAssoc
330
29C
 90
        2
 70
     0
 71
     0
  1
AcDbOsnapPointRef
 72
     2
331
2DB
 73
     2
 91
        0
 40
6.283185307179584
 10
0.0
 20
0.0
 30
0.0
 75
     0
  0
DIMASSOC
  5
2A1
102
{ACAD_REACTORS
330
2A0
102
}
330
2A0
100
AcDbDimAssoc
330
29F
 90
        3
 70
     0
 71
     0
  1
AcDbOsnapPointRef
 72
     2
331
2D1
 73
     2
 91
        0
 40
3.141592653589792
 10
0.0
 20
0.0
 30
0.0
 75
     0
  1
AcDbOsnapPointRef
 72
     2
331
2D3
 73
     2
 91
        0
 40
6.283185307179584
 10
0.0
 20
0.0
 30
0.0
 75
     0
  0
DIMASSOC
  5
2A4
102
{ACAD_REACTORS
330
2A3
102
}
330
2A3
100
AcDbDimAssoc
330
2A2
 90
        1
 70
     0
 71
     0
  1
AcDbOsnapPointRef
 72
    11
331
2C9
 73
     2
 91
        0
 40
0.000000000000001
 10
0.0
 20
0.0
 30
0.0
332
2C5
 74
     2
 92
        0
 75
     0
  0
DIMASSOC
  5
2A7
102
{ACAD_REACTORS
330
2A6
102
}
330
2A6
100
AcDbDimAssoc
330
2A5
 90
        3
 70
     0
 71
     0
  1
AcDbOsnapPointRef
 72
     2
331
2D8
 73
     2
 91
        0
 40
1.570796326794896
 10
0.0
 20
0.0
 30
0.0
 75
     0
  1
AcDbOsnapPointRef
 72
     2
331
2DA
 73
     2
 91
        0
 40
4.712388980384688
 10
0.0
 20
0.0
 30
0.0
 75
     0
  0
DIMASSOC
  5
2AB
102
{ACAD_REACTORS
330
2AA
102
}
330
2AA
100
AcDbDimAssoc
330
2A9
 90
        3
 70
     0
 71
     0
  1
AcDbOsnapPointRef
 72
     2
331
2CF
 73
     2
 91
        0
 40
1.570796326793979
 10
0.0
 20
0.0
 30
0.0
 75
     0
  1
AcDbOsnapPointRef
 72
     8
331
2C1
 73
     2
 91
        0
 40
4.712388980386132
 10
0.0
 20
0.0
 30
0.0
 75
     1
  1
AcDbOsnapPointRef
 72
     2
331
2CF
 73
     2
 91
        0
 40
1.570796326793979
 10
0.0
 20
0.0
 30
0.0
 75
     0
  0
DIMASSOC
  5
2AE
102
{ACAD_REACTORS
330
2AD
102
}
330
2AD
100
AcDbDimAssoc
330
2AC
 90
        1
 70
     0
 71
     0
  1
AcDbOsnapPointRef
 72
     1
331
2B2
 73
     2
 91
        0
 40
1.0
 10
0.0
 20
0.0
 30
2.000000000000000E+50
 75
     0
  0
DIMASSOC
  5
3F8
102
{ACAD_REACTORS
330
3EE
102
}
330
3EE
100
AcDbDimAssoc
330
3E1
 90
        3
 70
     0
 71
     0
  1
AcDbOsnapPointRef
 72
     1
331
27E
 73
     2
 91
        0
 40
1.0
 10
0.0
 20
0.0
 30
2.000000000000000E+50
 75
     0
  1
AcDbOsnapPointRef
 72
    13
331
2B7
 73
     2
 91
        0
 40
0.0
 10
0.0
 20
0.0
 30
2.000000000000000E+50
 75
     0
  0
DIMASSOC
  5
453
102
{ACAD_REACTORS
330
44D
102
}
330
44D
100
AcDbDimAssoc
330
444
 90
        2
 70
     0
 71
     0
  1
AcDbOsnapPointRef
 72
     3
331
42C
 73
     2
 91
        0
 40
0.0
 10
0.0
 20
0.0
 30
0.0
 75
     0
  0
DIMASSOC
  5
47C
102
{ACAD_REACTORS
330
476
102
}
330
476
100
AcDbDimAssoc
330
46D
 90
        2
 70
     0
 71
     0
  1
AcDbOsnapPointRef
 72
     3
331
42A
 73
     2
 91
        0
 40
0.0
 10
0.0
 20
0.0
 30
0.0
 75
     0
  0
LAYOUT
  5
24
102
{ACAD_REACTORS
330
1A
102
}
330
1A
100
AcDbPlotSettings
  1

  2
FX DocuPrint 255-AP
  4

  6

 40
0.0
 41
0.0
 42
0.0
 43
0.0
 44
0.0
 45
0.0
 46
0.0
 47
0.0
 48
0.0
 49
0.0
140
0.0
141
0.0
142
1.0
143
1.0
 70
  1712
 72
     0
 73
     0
 74
     0
  7

 75
     0
147
1.0
 76
     0
 77
     2
 78
   300
148
0.0
149
0.0
100
AcDbLayout
  1
Model
 70
     1
 71
     0
 10
0.0
 20
0.0
 11
12.0
 21
9.0
 12
0.0
 22
0.0
 32
0.0
 14
0.0
 24
0.0
 34
0.0
 15
0.0
 25
0.0
 35
0.0
146
0.0
 13
0.0
 23
0.0
 33
0.0
 16
1.0
 26
0.0
 36
0.0
 17
0.0
 27
1.0
 37
0.0
 76
     0
330
21
  0
LAYOUT
  5
20
102
{ACAD_REACTORS
330
1A
102
}
330
1A
100
AcDbPlotSettings
  1

  2
FX DocuPrint 255-AP
  4

  6

 40
0.0
 41
0.0
 42
0.0
 43
0.0
 44
0.0
 45
0.0
 46
0.0
 47
0.0
 48
0.0
 49
0.0
140
0.0
141
0.0
142
1.0
143
1.0
 70
   688
 72
     0
 73
     0
 74
     5
  7

 75
    16
147
1.0
 76
     0
 77
     2
 78
   300
148
0.0
149
0.0
100
AcDbLayout
  1
布局1
 70
     1
 71
     1
 10
0.0
 20
0.0
 11
420.0
 21
297.0
 12
0.0
 22
0.0
 32
0.0
 14
1.000000000000000E+20
 24
1.000000000000000E+20
 34
1.000000000000000E+20
 15
-1.000000000000000E+20
 25
-1.000000000000000E+20
 35
-1.000000000000000E+20
146
0.0
 13
0.0
 23
0.0
 33
0.0
 16
1.0
 26
0.0
 36
0.0
 17
0.0
 27
1.0
 37
0.0
 76
     0
330
1D
  0
LAYOUT
  5
28
102
{ACAD_REACTORS
330
1A
102
}
330
1A
100
AcDbPlotSettings
  1

  2
FX DocuPrint 255-AP
  4

  6

 40
0.0
 41
0.0
 42
0.0
 43
0.0
 44
0.0
 45
0.0
 46
0.0
 47
0.0
 48
0.0
 49
0.0
140
0.0
141
0.0
142
1.0
143
1.0
 70
   688
 72
     0
 73
     0
 74
     5
  7

 75
    16
147
1.0
 76
     0
 77
     2
 78
   300
148
0.0
149
0.0
100
AcDbLayout
  1
布局2
 70
     1
 71
     2
 10
0.0
 20
0.0
 11
12.0
 21
9.0
 12
0.0
 22
0.0
 32
0.0
 14
0.0
 24
0.0
 34
0.0
 15
0.0
 25
0.0
 35
0.0
146
0.0
 13
0.0
 23
0.0
 33
0.0
 16
1.0
 26
0.0
 36
0.0
 17
0.0
 27
1.0
 37
0.0
 76
     0
330
25
  0
MLINESTYLE
  5
18
102
{ACAD_REACTORS
330
17
102
}
330
17
100
AcDbMlineStyle
  2
STANDARD
 70
     0
  3

 62
   256
 51
90.0
 52
90.0
 71
     2
 49
0.5
 62
   256
  6
BYLAYER
 49
-0.5
 62
   256
  6
BYLAYER
  0
ACDBPLACEHOLDER
  5
F
102
{ACAD_REACTORS
330
E
102
}
330
E
  0
ENDSEC
  0
EOF
